Статистика раздачи
Размер:  1,48 GB   |    Зарегистрирован:  7 месяцев 26 дней   |    Скачан:  0 раз

Полного источника не было: Никогда

 
     
 
 

Гость ®

Пол:
Не указан

Два долгих гудка в тумане
Студия: Ленфильм, Первое творческое объединение
Жанр: детектив, триллер, боевик, криминал
Год выпуска: 1980
Продолжительность: 01:14:55
Режиссер: Валерий Родченко
В ролях: Николай Гринько, Александр Пороховщиков, Елена Капица, Дагун Омаев, Любовь Виролайнен, Виктор Проскурин, Андрей Толубеев, Александр Коваленко, Александр Суснин, Владимир Пожидаев, Пеэтер Урбла, Николай Федорцов, Азамат Багиров, Юрий Башков, Владимир Дятлов, Иван Ганжа, Святослав Копылов, Николай Кошелев, Олег Хроменков, Владимир Шаварин
Описание: В безлюдной тундре на озере совершает вынужденную посадку гидросамолет, на борту которого банковские инкассаторы везут крупную сумму денег. Начинается буря и самолет относит к дельте реки. Неизвестный похищает деньги из самолёта и убивает геолога, случайного свидетеля. А через несколько дней из северного порта отправляется в последний навигационный рейс теплоход, и капитану судна предстоит решить непростую загадку: кто же из пассажиров причастен к убийству и ограблению...
Дополнительная информация:
Автор релиза -
Источник субтитров и видео - DVB 576i TS - моя запись с канала "Первый"
Авторы русских субтитров - И.Кирик, О.Суслина, А.Голубкова, Н.Петрулевич, М.Дворак, А.Пряха, Л.Нестеренко / Первый канал, 2019г.




Рекламы нет!
Качество видео: DVB
Формат видео: MKV
Видео: MPEG-4, 720x576@1024х576 (16:9), 25.000 fps, 2577 kbps, 0.236 bit/pixel
Аудио: Русский MP2, 48000 Гц, 2ch, 192 kbps
Формат субтитров: softsub (SRT)

MediaInfo

Общее
Уникальный идентификатор : 217070792940146097165980392574868090156 (0xA34E506373F17BE2881C2CCA2D856D2C)
Полное имя : D:\Два.долгих.гудка.в.тумане.1980.DVB-ylnian.mkv
Формат : Matroska
Версия формата : Version 2
Размер файла : 1,48 Гбайт
Продолжительность : 1 ч. 14 м.
Общий поток : 2825 Кбит/сек
Дата кодирования : UTC 2019-02-02 14:15:15
Программа кодирования : mkvmerge v5.8.0 ('No Sleep / Pillow') built on Sep 2 2012 15:37:04
Библиотека кодирования : libebml v1.2.3 + libmatroska v1.3.0
Видео
Идентификатор : 1
Формат : AVC
Формат/Информация : Advanced Video Codec
Профиль формата : Main@L3
Настройки формата : CABAC / 3 Ref Frames
Параметр CABAC формата : Да
Параметр RefFrames формата : 3 кадра
Параметр GOP формата : M=4, N=28
Идентификатор кодека : V_MPEG4/ISO/AVC
Битрейт : 2577 Кбит/сек
Ширина : 720 пикселей
Высота : 576 пикселей
Соотношение сторон : 16:9
Режим частоты кадров : Постоянный
Частота кадров : 25,000 кадров/сек
Стандарт вещания : Component
Цветовое пространство : YUV
Субдискретизация насыщенности : 4:2:0
Битовая глубина : 8 бит
Тип развёртки : Чересстрочная
Метод сохранения типа развёртки : Чередующиеся поля
Порядок развёртки : Верхнее поле первое
Бит/(Пиксели*Кадры) : 0.236
Размер потока : 1,34 Гбайт (91%)
Язык : Russian
Default : Да
Forced : Да
Цветовой диапазон : Limited
Основные цвета : BT.601 PAL
Характеристики трансфера : BT.470 System B/G
Коэффициенты матрицы : BT.470 System B/G
Аудио
Идентификатор : 2
Формат : MPEG Audio
Версия формата : Version 1
Профиль формата : Layer 2
Идентификатор кодека : A_MPEG/L2
Идентификатор кодека/Подсказка : MP2
Продолжительность : 1 ч. 14 м.
Вид битрейта : Постоянный
Битрейт : 192 Кбит/сек
Каналы : 2 канала
Частота : 48,0 КГц
Метод сжатия : С потерями
Размер потока : 103 Мбайт (7%)
Язык : Russian
Default : Да
Forced : Да
Текст
Идентификатор : 3
Формат : UTF-8
Идентификатор кодека : S_TEXT/UTF8
Идентификатор кодека/Информация : UTF-8 Plain Text
Язык : Russian
Default : Нет
Forced : Нет

Сравнение

Сравнение с DVD - http://screenshotcomparison.com/comparison/129384 - правильный AR, больше наполнение кадра сверху/снизу, но подрезано по бокам, меньше дефектов плёнки
[cybertorrent.net].t260.torrent 
Торрент: Зарегистрирован [ 2019-03-18 10:04 ] · C65F69B54F320EB5057D076FC56C15167FC3F614

Скачать .torrent

Скачать

15 KB

Статус: проверено
Скачан: 0 раз
Размер: 1,48 GB
terms.php
Показать сообщения:    

Текущее время: 14-Ноя 06:46

Часовой пояс: UTC ± 0



Вы не можете начинать темы
Вы не можете отвечать на сообщения
Вы не можете редактировать свои сообщения
Вы не можете удалять свои сообщения
Вы не можете голосовать в опросах
Вы не можете прикреплять файлы к сообщениям
Вы можете скачивать файлы