Статистика раздачи
Размер:  3,15 GB   |    Зарегистрирован:  7 месяцев 5 дней   |    Скачан:  0 раз

Полного источника не было: Никогда

 
     
 
 

солнышко ®

Пол:
Не указан
Стаж:
8 месяцев 30 дней
Сообщений:
565

Семья по-быстрому
Instant Family
- Страна: США
Жанр: драма, комедия
Год выпуска: 2018
Продолжительность: 01:58:05-Перевод: Профессиональный (дублированный) | BD EUR
Субтитры: русские, английские
Оригинальная аудиодорожка: английский-Режиссер: Шон Андерс / Sean Anders-В ролях:
Марк Уолберг | Mark Wahlberg
Роуз Бирн | Rose Byrne

Изабела Монер, Густаво Куирос мл., Джулианна Гамис, Октавия Спенсер, Тиг Нотаро, Том Сегура, Эллин Рэйчел, Бритт Рентшлер-Описание:Усыновляя трех детей, бездетная супружеская пара не представляла, с каким количеством проблем им придется столкнуться.-
IMDb: 7.40 (42 001)
Sample
Качество видео: BDRip-AVC | Instant.Family.2018.BDREMUX.1080p.seleZen
Формат видео: MKV
Видео: AVC 2920 kb/s 1152 x 480 (2.400) 23.976 fps
Аудио 1: 48 kHz, AC3 Dolby Digital, 3/2 (L,C,R,l,r) + LFE ch, 448 kbps | RUS
Аудио 2: 48 kHz, AC3 Dolby Digital, 3/2 (L,C,R,l,r) + LFE ch, 448 kbps | ENG

MediaInfo | Log

Log

x264 [info]: frame I:2206 Avg QP:15.65 size: 97615
x264 [info]: frame P:37375 Avg QP:17.10 size: 31040
x264 [info]: frame B:130311 Avg QP:19.21 size: 9290
x264 [info]: consecutive B-frames: 2.6% 2.2% 8.6% 24.0% 19.5% 34.2% 5.2% 1.4% 1.0% 0.6% 0.4% 0.4%
x264 [info]: mb I I16..4: 12.4% 68.1% 19.4%
x264 [info]: mb P I16..4: 0.5% 11.8% 1.3% P16..4: 27.4% 33.8% 16.1% 3.2% 0.3% skip: 5.6%
x264 [info]: mb B I16..4: 0.0% 0.9% 0.1% B16..8: 32.9% 23.4% 5.0% direct: 4.7% skip:33.0% L0:43.2% L1:40.8% BI:16.0%
x264 [info]: 8x8 transform intra:82.1% inter:56.9%
x264 [info]: direct mvs spatial:100.0% temporal:0.0%
x264 [info]: coded y,uvDC,uvAC intra: 96.3% 95.9% 86.6% inter: 22.4% 24.5% 11.0%
x264 [info]: i16 v,h,dc,p: 12% 8% 19% 60%
x264 [info]: i8 v,h,dc,ddl,ddr,vr,hd,vl,hu: 12% 8% 9% 9% 12% 14% 11% 13% 12%
x264 [info]: i4 v,h,dc,ddl,ddr,vr,hd,vl,hu: 12% 8% 3% 8% 16% 16% 13% 12% 11%
x264 [info]: i8c dc,h,v,p: 49% 16% 18% 17%
x264 [info]: Weighted P-Frames: Y:1.8% UV:1.0%
x264 [info]: ref P L0: 48.9% 11.7% 17.3% 5.5% 5.5% 3.0% 3.0% 1.4% 1.5% 1.1% 1.2% 0.0% 0.0%
x264 [info]: ref B L0: 72.8% 11.6% 5.8% 3.0% 2.2% 1.7% 1.3% 0.8% 0.5% 0.2%
x264 [info]: ref B L1: 94.5% 5.5%
x264 [info]: kb/s:2919.70
x264 [total]: encoded 169892 frames, 13.95 fps, 2919.70 kb/s,
Format : Matroska
Format version : Version 4
File size : 3.15 GiB
Duration : 1 h 58 min
Overall bit rate : 3 818 kb/s
Encoded date : UTC 2019-05-05 22:04:46
Writing application : mkvmerge v8.2.0 ('World of Adventure') 64bit
Writing library : libebml v1.3.1 + libmatroska v1.4.2
Video
ID : 1
Format : AVC
Format/Info : Advanced Video Codec
Format profile : High@L4.1
Format settings : CABAC / 11 Ref Frames
Format settings, CABAC : Yes
Format settings, RefFrames : 11 frames
Codec ID : V_MPEG4/ISO/AVC
Duration : 1 h 58 min
Bit rate : 2 920 kb/s
Width : 1 152 pixels
Height : 480 pixels
Display aspect ratio : 2.40:1
Frame rate mode : Constant
Frame rate : 23.976 (24000/1001) FPS
Color space : YUV
Chroma subsampling : 4:2:0
Bit depth : 8 bits
Scan type : Progressive
Bits/(Pixel*Frame) : 0.220
Stream size : 2.41 GiB (76%)
Title : Instant Family (2018) [rutracker.org]
Writing library : x264 core 152 r2851kMod ba24899
Encoding settings : cabac=1 / ref=11 / deblock=1:-3:-2 / analyse=0x3:0x133 / me=umh / subme=11 / psy=1 / fade_compensate=0.00 / psy_rd=1.00:0.05 / mixed_ref=1 / me_range=48 / chroma_me=1 / trellis=2 / 8x8dct=1 / cqm=0 / deadzone=21,11 / fast_pskip=0 / chroma_qp_offset=-3 / threads=12 / lookahead_threads=3 / sliced_threads=0 / nr=0 / decimate=1 / interlaced=0 / bluray_compat=0 / constrained_intra=0 / bframes=11 / b_pyramid=2 / b_adapt=2 / b_bias=0 / direct=3 / weightb=1 / open_gop=0 / weightp=2 / keyint=250 / keyint_min=23 / scenecut=40 / intra_refresh=0 / rc_lookahead=60 / rc=crf / mbtree=0 / crf=17.2000 / qcomp=0.60 / qpmin=0 / qpmax=69 / qpstep=4 / vbv_maxrate=50000 / vbv_bufsize=62500 / crf_max=0.0 / nal_hrd=none / filler=0 / ip_ratio=1.40 / pb_ratio=1.30 / aq=3:0.90
Language : English
Default : Yes
Forced : No
Audio #1
ID : 2
Format : AC-3
Format/Info : Audio Coding 3
Commercial name : Dolby Digital
Codec ID : A_AC3
Duration : 1 h 58 min
Bit rate mode : Constant
Bit rate : 448 kb/s
Channel(s) : 6 channels
Channel layout : L R C LFE Ls Rs
Sampling rate : 48.0 kHz
Frame rate : 31.250 FPS (1536 SPF)
Bit depth : 16 bits
Compression mode : Lossy
Stream size : 378 MiB (12%)
Title : Dub
Language : Russian
Service kind : Complete Main
Default : Yes
Forced : No
Audio #2
ID : 3
Format : AC-3
Format/Info : Audio Coding 3
Commercial name : Dolby Digital
Codec ID : A_AC3
Duration : 1 h 58 min
Bit rate mode : Constant
Bit rate : 448 kb/s
Channel(s) : 6 channels
Channel layout : L R C LFE Ls Rs
Sampling rate : 48.0 kHz
Frame rate : 31.250 FPS (1536 SPF)
Bit depth : 16 bits
Compression mode : Lossy
Stream size : 378 MiB (12%)
Title : Original
Language : English
Service kind : Complete Main
Default : No
Forced : No
Text #1
ID : 4
Format : UTF-8
Codec ID : S_TEXT/UTF8
Codec ID/Info : UTF-8 Plain Text
Duration : 1 h 57 min
Bit rate : 1 b/s
Count of elements : 25
Stream size : 1.32 KiB (0%)
Title : Forced
Language : Russian
Default : Yes
Forced : No
Text #2
ID : 5
Format : UTF-8
Codec ID : S_TEXT/UTF8
Codec ID/Info : UTF-8 Plain Text
Duration : 1 h 57 min
Bit rate : 126 b/s
Count of elements : 1841
Stream size : 109 KiB (0%)
Title : Full
Language : Russian
Default : No
Forced : No
Text #3
ID : 6
Format : UTF-8
Codec ID : S_TEXT/UTF8
Codec ID/Info : UTF-8 Plain Text
Duration : 1 h 52 min
Bit rate : 100 b/s
Count of elements : 2242
Stream size : 82.7 KiB (0%)
Title : Full
Language : English
Default : No
Forced : No
Text #4
ID : 7
Format : UTF-8
Codec ID : S_TEXT/UTF8
Codec ID/Info : UTF-8 Plain Text
Duration : 1 h 57 min
Bit rate : 100 b/s
Count of elements : 2365
Stream size : 86.5 KiB (0%)
Title : SDH
Language : English
Default : No
Forced : No
Menu
00:00:00.000 : en:00:00:00.000
00:07:54.724 : en:00:07:54.724
00:13:08.621 : en:00:13:08.621
00:24:59.540 : en:00:24:59.540
00:32:26.236 : en:00:32:26.236
00:37:12.897 : en:00:37:12.897
00:44:43.848 : en:00:44:43.848
00:50:12.468 : en:00:50:12.468
00:57:41.249 : en:00:57:41.249
01:02:31.831 : en:01:02:31.831
01:08:50.752 : en:01:08:50.752
01:15:25.855 : en:01:15:25.855
01:23:04.688 : en:01:23:04.688
01:28:42.567 : en:01:28:42.567
01:37:53.993 : en:01:37:53.993
01:52:54.434 : en:01:52:54.434[/pre]

Скриншоты


[cybertorrent.net].t2592.torrent 
Торрент: Зарегистрирован [ 2019-05-06 16:58 ] · 65E71F1812192FE1DB21F52916BB15A68C06E760

Скачать .torrent

Скачать

16 KB

Статус: проверено
Скачан: 0 раз
Размер: 3,15 GB
terms.php
Профиль [ЛС]
Показать сообщения:    

Текущее время: 12-Дек 04:58

Часовой пояс: UTC ± 0



Вы не можете начинать темы
Вы не можете отвечать на сообщения
Вы не можете редактировать свои сообщения
Вы не можете удалять свои сообщения
Вы не можете голосовать в опросах
Вы не можете прикреплять файлы к сообщениям
Вы можете скачивать файлы