Статистика раздачи
Размер:  1,42 GB   |    Зарегистрирован:  6 месяцев 14 дней   |    Скачан:  0 раз
Сидов:  18  [  0 KB/s  ]  
 
     
 
 

Гость ®

Пол:
Не указан

По законам военного времени-3
Год выпуска: 2019
Производство: Россия, Star Media
Жанр: военный, драма, детектив
Продолжительность: ~00:51:00 серия
Субтитры: нет
Режиссёр: Евгений Серов
В ролях: Екатерина Климова, Евгений Воловенко, Александр Панкратов-Чёрный, Дмитрий Сутырин, Юрий Ваксман, Анна Глаубэ, Игорь Штернберг, Евгений Овчинников, Сергей Бачурский, Анатолий Гущин, Иван Шибанов, Максим Литовченко, Денис Константинов, Дмитрий Кравченко, Ксения Щербакова, Иван Шмаков
Описание: 1944 год. Одесса, освобожденная от немецко-румынской оккупации, начинает жить мирной жизнью. Однако по сведениям военной разведки в городе продолжает действовать агентурная сеть Абвера, из числа завербованного местного населения и прибывших профессионально обученных диверсантов. В Москве формируется специальная оперативная группа из следователей СМЕРШа и военной прокуратуры, которая направляется в Одессу для усиления местных органов власти и милиции. В состав спецподразделения, руководимого капитаном СМЕРШа Виктором Звягиновым, входят следователи военной прокуратуры Светлана Елагина и Иван Рокотов, потерявшие друг друга во время отступления из Харькова в 1941 году и вновь встретившиеся после долгой разлуки...

Реклама: Нет.
Кинопоиск
Все раздачи сериала
Sample
Качество: HDTVRip - olegka7373 (GeneralFilm)
Формат: AVI
Видео кодек: XviD
Аудио кодек: AC3
Видео: 720x400 (1.80:1), 25 fps, XviD, ~1762 kbps avg, 0.24 bit/pixel
Аудио: 48.0 kHz, AC3 Dolby Digital, 2/0 (L,R) ch, ~ 192 kbps

Внимание! Раздача ведётся путём добавления новых серий

Раздача ведётся путём добавления новых серий, при каждом добавлении создаётся новый торрент. Чтобы начать докачку новой серии, пользователям необходимо сделать следующее:
- Остановить скачивание.
- Удалить старый торрент у себя из клиента (старые серии удалять не надо).
- Скачать новый торрент и запустить его у себя в клиенте вместо старого, при этом указать клиенту путь в старую папку куда и должно происходить скачивание новых серий.
Ваш клиент при этом должен произвести хеширование (проверку) старой папки (если не производит сам - помогите ему сделать это), и будет докачивать только те серии которых у вас ещё нет. Старые серии при этом не удаляются, а продолжают раздаваться!
Если вы уже удалили старые серии, то предотвратить повторную закачку старых серий можно, отжав галочку в соответствующих местах при запуске нового торрента. По возможности, желательно не удалять старые серии как можно дольше, чтобы релизер не столько продолжал раздавать старые серии, а смог сконцентрироваться на новых.

MI

General
Complete name : D:\Po zakonam voennogo vremeni 3.HDTVRip.GeneralFilm\01.Po zakonam voennogo vremeni 3.HDTVRip.GeneralFilm.avi
Format : AVI
Format/Info : Audio Video Interleave
File size : 724 MiB
Duration : 51 min 19 s
Overall bit rate : 1 972 kb/s
Video
ID : 0
Format : MPEG-4 Visual
Format profile : Advanced Simple@L5
Format settings : BVOP1 / Custom Matrix
Format settings, BVOP : 1
Format settings, QPel : No
Format settings, GMC : No warppoints
Format settings, Matrix : Custom
Codec ID : XVID
Codec ID/Hint : XviD
Duration : 51 min 19 s
Bit rate : 1 768 kb/s
Width : 720 pixels
Height : 400 pixels
Display aspect ratio : 16:9
Frame rate : 25.000 FPS
Color space : YUV
Chroma subsampling : 4:2:0
Bit depth : 8 bits
Scan type : Progressive
Compression mode : Lossy
Bits/(Pixel*Frame) : 0.246
Stream size : 649 MiB (90%)
Writing library : XviD 1.2.1 (UTC 2008-12-04)
Audio
ID : 1
Format : AC-3
Format/Info : Audio Coding 3
Codec ID : 2000
Duration : 51 min 19 s
Bit rate mode : Constant
Bit rate : 192 kb/s
Channel(s) : 2 channels
Channel positions : Front: L R
Sampling rate : 48.0 kHz
Frame rate : 31.250 FPS (1536 SPF)
Bit depth : 16 bits
Compression mode : Lossy
Stream size : 70.5 MiB (10%)
Alignment : Aligned on interleaves
Interleave, duration : 32 ms (0.80 video frame)
Service kind : Complete Main

Скриншоты


[cybertorrent.net].t2587.torrent 
Торрент: Зарегистрирован [ 2019-05-06 16:58 ] · 1504EB1A9B6BD860D518A97D58EDC26C38B6B61B

Скачать .torrent

Скачать

15 KB

Статус: проверено
Скачан: 0 раз
Размер: 1,42 GB
terms.php
Показать сообщения:    

Текущее время: 21-Ноя 01:11

Часовой пояс: UTC ± 0



Вы не можете начинать темы
Вы не можете отвечать на сообщения
Вы не можете редактировать свои сообщения
Вы не можете удалять свои сообщения
Вы не можете голосовать в опросах
Вы не можете прикреплять файлы к сообщениям
Вы можете скачивать файлы