Статистика раздачи
Размер:  9,12 GB   |    Зарегистрирован:  6 месяцев 6 дней   |    Скачан:  0 раз
Сидов:  17  [  0 KB/s  ]   Личеров:  6  [  0 KB/s  ]  
 
     
 
 

Гость ®

Пол:
Не указан

По законам военного времени-3
Год выпуска: 2019
Производство: Россия, Star Media
Жанр: военный, драма, детектив
Продолжительность: ~00:51:00 серия
Субтитры: нет
Режиссёр: Евгений Серов
В ролях: Екатерина Климова, Евгений Воловенко, Александр Панкратов-Чёрный, Дмитрий Сутырин, Юрий Ваксман, Анна Глаубэ, Игорь Штернберг, Евгений Овчинников, Сергей Бачурский, Анатолий Гущин, Иван Шибанов, Максим Литовченко, Денис Константинов, Дмитрий Кравченко, Ксения Щербакова, Иван Шмаков
Описание: 1944 год. Одесса, освобожденная от немецко-румынской оккупации, начинает жить мирной жизнью. Однако по сведениям военной разведки в городе продолжает действовать агентурная сеть Абвера, из числа завербованного местного населения и прибывших профессионально обученных диверсантов. В Москве формируется специальная оперативная группа из следователей СМЕРШа и военной прокуратуры, которая направляется в Одессу для усиления местных органов власти и милиции. В состав спецподразделения, руководимого капитаном СМЕРШа Виктором Звягиновым, входят следователи военной прокуратуры Светлана Елагина и Иван Рокотов, потерявшие друг друга во время отступления из Харькова в 1941 году и вновь встретившиеся после долгой разлуки...

Реклама: Нет.
Кинопоиск
Все раздачи сериала
Sample
Качество: HDTV 1080i - olegka7373 (GeneralFilm)
Формат: TS
Видео кодек: AVC
Аудио кодек: AC3, MP2
Видео: MPEG4 AVC Video, H264, 16:9, 1920x1080, 25 fps, ~5500 kbps, 0.106 bit/pixel
Аудио: AC3, 6 ch, 384 kbps, 16 bits, 48.0 KHz
Аудио 2: MP2, 2 ch, 192 kbps, 16 bits, 48.0 KHz

Внимание! Раздача ведётся путём добавления новых серий

Раздача ведётся путём добавления новых серий, при каждом добавлении создаётся новый торрент. Чтобы начать докачку новой серии, пользователям необходимо сделать следующее:
- Остановить скачивание.
- Удалить старый торрент у себя из клиента (старые серии удалять не надо).
- Скачать новый торрент и запустить его у себя в клиенте вместо старого, при этом указать клиенту путь в старую папку куда и должно происходить скачивание новых серий.
Ваш клиент при этом должен произвести хеширование (проверку) старой папки (если не производит сам - помогите ему сделать это), и будет докачивать только те серии которых у вас ещё нет. Старые серии при этом не удаляются, а продолжают раздаваться!
Если вы уже удалили старые серии, то предотвратить повторную закачку старых серий можно, отжав галочку в соответствующих местах при запуске нового торрента. По возможности, желательно не удалять старые серии как можно дольше, чтобы релизер не столько продолжал раздавать старые серии, а смог сконцентрироваться на новых.

MI

General
ID : 1 (0x1)
Complete name : D:\Po zakonam voennogo vremeni 3.HDTV(1080i).GeneralFilm\01.Po zakonam voennogo vremeni 3.HDTV(1080i).GeneralFilm.ts
Format : MPEG-TS
File size : 2.30 GiB
Duration : 51 min 19 s
Overall bit rate mode : Variable
Overall bit rate : 6 406 kb/s
Video
ID : 1904 (0x770)
Menu ID : 80 (0x50)
Format : AVC
Format/Info : Advanced Video Codec
Format profile : High@L4
Format settings : CABAC / 3 Ref Frames
Format settings, CABAC : Yes
Format settings, ReFrames : 3 frames
Codec ID : 27
Duration : 51 min 19 s
Bit rate : 5 508 kb/s
Width : 1 920 pixels
Height : 1 080 pixels
Display aspect ratio : 16:9
Frame rate : 25.000 FPS
Standard : Component
Color space : YUV
Chroma subsampling : 4:2:0
Bit depth : 8 bits
Scan type : Interlaced
Scan type, store method : Separated fields
Scan order : Top Field First
Bits/(Pixel*Frame) : 0.106
Stream size : 1.97 GiB (86%)
Color range : Limited
Color primaries : BT.709
Transfer characteristics : BT.709
Matrix coefficients : BT.709
Audio #1
ID : 2904 (0xB58)
Menu ID : 80 (0x50)
Format : AC-3
Format/Info : Audio Coding 3
Codec ID : 6
Duration : 51 min 19 s
Bit rate mode : Constant
Bit rate : 384 kb/s
Channel(s) : 6 channels
Channel positions : Front: L C R, Side: L R, LFE
Sampling rate : 48.0 kHz
Frame rate : 31.250 FPS (1536 SPF)
Bit depth : 16 bits
Compression mode : Lossy
Delay relative to video : -40 ms
Stream size : 141 MiB (6%)
Language : Russian
Service kind : Complete Main
Audio #2
ID : 2905 (0xB59)
Menu ID : 80 (0x50)
Format : MPEG Audio
Format version : Version 1
Format profile : Layer 2
Codec ID : 3
Duration : 51 min 19 s
Bit rate mode : Constant
Bit rate : 192 kb/s
Channel(s) : 2 channels
Sampling rate : 48.0 kHz
Frame rate : 41.667 FPS (1152 SPF)
Compression mode : Lossy
Delay relative to video : -40 ms
Stream size : 70.5 MiB (3%)
Language : Russian

Скриншоты


[cybertorrent.net].t2585.torrent 
Торрент: Зарегистрирован [ 2019-05-06 16:58 ] · 490F844FA90D11E7FC3BF9F563C150B7C017DC4B

Скачать .torrent

Скачать

46 KB

Статус: проверено
Скачан: 0 раз
Размер: 9,12 GB
terms.php
Показать сообщения:    

Текущее время: 13-Ноя 15:02

Часовой пояс: UTC ± 0



Вы не можете начинать темы
Вы не можете отвечать на сообщения
Вы не можете редактировать свои сообщения
Вы не можете удалять свои сообщения
Вы не можете голосовать в опросах
Вы не можете прикреплять файлы к сообщениям
Вы можете скачивать файлы