Статистика раздачи
Размер:  721 MB   |    Зарегистрирован:  7 месяцев 3 дня   |    Скачан:  0 раз

Полного источника не было: Никогда

 
     
 
 

serzh ®

Пол:
Не указан
Стаж:
8 месяцев 28 дней
Сообщений:
384

Эта дикая кошка / Этот Чёртов Кот / That Darn Cat
Страна: США
Жанр: триллер, комедия, криминал, семейный
Год выпуска: 1965
Продолжительность: 01:56:28
-
Перевод: Одноголосый закадровый allecs2010 по субтитрам TaniaBudapest
Субтитры: нет
-
Режиссер: Роберт Стивенсон / Robert Stevenson
В ролях: Хейли Миллз, Дин Джонс, Дороти Провайн, Родди МакДауэлл, Невилл Брэнд, Эльза Ланчестер, Уильям Демарест, Фрэнк Горшин, Ричард Истхэм, Грэйсон Холл
-
Описание: Старшеклассница Патти Рэндалл не любит свой город, о чем и написала в сочинении. Зато она любит своего озорного голубоглазого кота ДиСи, который ловко носится по крышам. Все люди ей кажутся скучными и глупыми, видимо, так оно и есть. Тогда и начинаются странные и смешные приключения, связанные с котом, ФБР, полицией. Впрочем, как мы знаем, и одного энергичного дурака достаточно, чтобы перевернуть все вверх дном.
-
Доп. информация: Видео https://cybertorrent.ru/viewtopic.php?t=4113836
-
Сэмпл: http://sendfile.su/1492756
-
Качество видео: DVDRip
Формат видео: AVI
Видео: DivX, 720x480, 23.976 кадр/сек, 730 Кбит/сек, 0.088 бит/пиксель
Аудио: MP3, 48 КГц, 1 канал, 128 Кбит/сек

MediaInfo

C:\Users\ALEX\Desktop\Фильмы\That Darn Cat.1965.RUS.DVDRip.DivX.MPEG Audio.avi
General
Complete name : C:\Users\ALEX\Desktop\Фильмы\That Darn Cat.1965.RUS.DVDRip.DivX.MPEG Audio.avi
Format : AVI
Format/Info : Audio Video Interleave
File size : 721 MiB
Duration : 1h 56mn
Overall bit rate : 866 Kbps
Writing application : VirtualDubMod 1.5.10.2 (build 2542/release)
Writing library : VirtualDubMod build 2542/release
Video #0
ID : 0
Format : MPEG-4 Visual
Format settings, BVOP : 1
Format settings, QPel : No
Format settings, GMC : 2 warppoints
Format settings, Matrix : Default (H.263)
Codec ID : DX50
Codec ID/Hint : DivX 5
Duration : 1h 56mn
Bit rate : 729 Kbps
Width : 720 pixels
Height : 480 pixels
Display aspect ratio : 3:2
Frame rate : 23.976 fps
Standard : NTSC
Color space : YUV
Chroma subsampling : 4:2:0
Bit depth : 8 bits
Scan type : Progressive
Compression mode : Lossy
Bits/(Pixel*Frame) : 0.088
Stream size : 607 MiB (84%)
Writing library : DivX 5.1.1 (Maupiti) (UTC 2003-11-19)
Audio #1
ID : 1
Format : MPEG Audio
Format version : Version 1
Format profile : Layer 3
Codec ID : 55
Codec ID/Hint : MP3
Duration : 1h 56mn
Bit rate mode : Constant
Bit rate : 128 Kbps
Channel(s) : 1 channel
Sampling rate : 48.0 KHz
Compression mode : Lossy
Stream size : 107 MiB (15%)
Alignment : Aligned on interleaves
Interleave, duration : 42 ms (1.00 video frame)
Interleave, preload duration : 504 ms

Скриншоты

[cybertorrent.net].t2584.torrent 
Торрент: Зарегистрирован [ 2019-05-06 16:58 ] · 7156CD59FA6F358351FDBEB3A1F063C5CB3073CE

Скачать .torrent

Скачать

15 KB

Статус: проверено
Скачан: 0 раз
Размер: 721 MB
terms.php
Профиль [ЛС]
Показать сообщения:    

Текущее время: 10-Дек 09:11

Часовой пояс: UTC ± 0



Вы не можете начинать темы
Вы не можете отвечать на сообщения
Вы не можете редактировать свои сообщения
Вы не можете удалять свои сообщения
Вы не можете голосовать в опросах
Вы не можете прикреплять файлы к сообщениям
Вы можете скачивать файлы