Статистика раздачи
Размер:  1,46 GB   |    Зарегистрирован:  6 месяцев 15 дней   |    Скачан:  0 раз

Полного источника не было: Никогда

 
     
 
 

serzh ®

Пол:
Не указан
Стаж:
8 месяцев 10 дней
Сообщений:
384

Смоки и Бандит 3 / Полицейский и Бандит 3 / Smokey and the Bandit Part 3
Страна: США
Жанр: комедия, криминал
Год выпуска: 1983
Продолжительность: 01:24:56
Перевод: Авторский (одноголосый закадровый) Владимир Королев
Субтитры: нет
Оригинальная аудиодорожка: Английский
Режиссер: Дик Лоури / Dick Lowry
В ролях: Джеки Глисон, Джерри Рид, Пол Уильямс, Пэт МакКормик, Майк Генри, Коллин Кэмп, Фэйт Минтон, Бёрт Рейнолдс, Шарон Андерсон
Описание: Шериф Бьюфорд Джастис, после долгих лет погонь и беспокойной жизни решает выйти на пенсию. Пройдя через все занятия пенсионеров, он затосковал и решил вернуться на работу. Его возвращения с нетерпением ожидают отец и сын Энгусы, с которыми шериф заключает пари. Джастис должен за одни сутки перевезти в штат Техас, расстояние до которого свыше 1000 миль, большой логотип рыбы на крыше автомобиля. Энгусы ставят на кон 250 тысяч долларов, а наш герой - свою бляху шерифа. Шериф Джастис вместе с сыном и рыбой на автомобиле рвутся в дорогу. Но отец и сын Энгусы не собираются честно выполнять условия пари и отдавать деньги, поэтому они всячески мешают шерифу: сыпят песок в бензобак, устанавливают поперек дороги цистерну с молоком, но это не удерживает Джастиса. Тогда семейка Энгусов предлагает Снеговику переодеться Бандитом и помешать шерифу выиграть пари. В процессе погони пресловутая рыба несколько раз переходит от Джастиса к Снеговику. Кто из них все-таки выиграет пари...?
Сэмпл: http://multi-up.com/1231357
Качество видео: BDRip (Исходник BDRemux 1080p)
Формат видео: AVI
Видео: XviD 73, 720x304, (2,35:1), 23,976 fps, 2070 Кбит/с, 8 бит
Аудио: Русский (АС3, 2 ch (Front: L R), 48,0 KHz, 192 Kbps)
Аудио 2: Английский (АС3, 2 ch (Front: L R), 48,0 KHz, 192 Kbps)

MediaInfo

Общее
Полное имя : E:\Смоки и Бандит - 3 (комедия, криминал 1983 год).avi
Формат : AVI
Формат/Информация : Audio Video Interleave
Размер файла : 1,46 Гбайт
Продолжительность : 1 ч. 24 м.
Общий поток : 2468 Кбит/сек
Программа кодирования : VirtualDubMod 1.5.10.2 (build 2540/release)
Библиотека кодирования : VirtualDubMod build 2540/release
Видео
Идентификатор : 0
Формат : MPEG-4 Visual
Профиль формата : Advanced Simple@L5
Параметр BVOP формата : 2
Параметр QPel формата : Нет
Параметр GMC формата : Без точки перехода
Параметр матрицы формата : Выборочная
Идентификатор кодека : XVID
Идентификатор кодека/Подсказка : XviD
Продолжительность : 1 ч. 24 м.
Битрейт : 2070 Кбит/сек
Ширина : 720 пикселей
Высота : 304 пикселя
Соотношение сторон : 2,35:1
Частота кадров : 23,976 (23976/1000) кадра/сек
Цветовое пространство : YUV
Субдискретизация насыщенности : 4:2:0
Битовая глубина : 8 бит
Тип развёртки : Прогрессивная
Метод сжатия : С потерями
Бит/(Пиксели*Кадры) : 0.394
Размер потока : 1,23 Гбайт (84%)
Библиотека кодирования : XviD 73
Аудио #1
Идентификатор : 1
Формат : AC-3
Формат/Информация : Audio Coding 3
Расширение режима : CM (complete main)
Параметр Endianness формата : Big
Идентификатор кодека : 2000
Продолжительность : 1 ч. 24 м.
Вид битрейта : Постоянный
Битрейт : 192 Кбит/сек
Каналы : 2 канала
Расположение каналов : Front: L R
Частота : 48,0 КГц
Частота кадров : 31,250 кадров/сек (1536 spf)
Метод сжатия : С потерями
Размер потока : 117 Мбайт (8%)
Выравнивание : Разделение по промежуткам
Продолжительность промежутка : 42 мс. (1,00 видеокадр)
Время предзагрузки промежутка : 500 мс.
Аудио #2
Идентификатор : 2
Формат : AC-3
Формат/Информация : Audio Coding 3
Расширение режима : CM (complete main)
Параметр Endianness формата : Big
Идентификатор кодека : 2000
Продолжительность : 1 ч. 24 м.
Вид битрейта : Постоянный
Битрейт : 192 Кбит/сек
Каналы : 2 канала
Расположение каналов : Front: L R
Частота : 48,0 КГц
Частота кадров : 31,250 кадров/сек (1536 spf)
Метод сжатия : С потерями
Размер потока : 117 Мбайт (8%)
Выравнивание : Разделение по промежуткам
Продолжительность промежутка : 42 мс. (1,00 видеокадр)
Время предзагрузки промежутка : 500 мс.

Скриншот c названием фильма

Скриншоты

[cybertorrent.net].t2581.torrent 
Торрент: Зарегистрирован [ 2019-05-06 16:58 ] · 930ED986A0DDBCC7CE16242A58E611AE537AD226

Скачать .torrent

Скачать

15 KB

Статус: проверено
Скачан: 0 раз
Размер: 1,46 GB
terms.php
Профиль [ЛС]
Показать сообщения:    

Текущее время: 22-Ноя 12:54

Часовой пояс: UTC ± 0



Вы не можете начинать темы
Вы не можете отвечать на сообщения
Вы не можете редактировать свои сообщения
Вы не можете удалять свои сообщения
Вы не можете голосовать в опросах
Вы не можете прикреплять файлы к сообщениям
Вы можете скачивать файлы