Статистика раздачи
Размер:  2,93 GB   |    Зарегистрирован:  6 месяцев 10 дней   |    Скачан:  0 раз

Полного источника не было: Никогда

 
     
 
 

karlll ®

Пол:
Не указан
Стаж:
8 месяцев 5 дней
Сообщений:
171

ЛЕГО Фильм-2 | The Lego Movie 2: The Second Part«Они придут с миром»- Страна: Дания, Норвегия, Австралия, США
Жанр: мультфильм, мюзикл, фэнтези, комедия, приключения
Год выпуска: 2019
Продолжительность: 01:47:09-Перевод: Профессиональный (дублированный) | iTunes Rus, Ukr
Субтитры: Русские (Forced, full), украинские (Forced), английские
Оригинальная аудиодорожка: английский-Режиссер: Майк Митчелл / Mike Mitchell-Роли озвучивали: Крис Прэтт, Элизабет Бэнкс, Уилл Арнетт, Тиффани Хэддиш, Стефани Беатриз, Элисон Бри, Ник Офферман, Чарли Дэй, Майя Рудольф, Уилл Феррелл-Описание:Прошло пять лет с тех пор, когда все было прекрасно, и теперь герои столкнулись с новой невероятной угрозой — захватчиками LEGO DUPLO®, прибывшими из космоса и разрушающими всё на своем пути куда быстрее, чем герои могут построить вновь. В борьбе за восстановление гармонии во вселенной ЛЕГО Эммет, Люся, Бэтмен и их верные друзья отправятся в далекие неизведанные миры, в том числе необыкновенную галактику, где всегда царит музыка. Героям предстоит доказать свою смелость, находчивость и мастерство, а также понять, что каждый из них — особенный.-Sample

IMDb: 6.80 (25 175)
релиз: -Качество видео: BDRip-AVC | The.Lego.Movie.2.The.Second.Part.2019.BDREMUX.1080p.seleZen
Формат видео: MKV
Видео: AVC 2919 kb/s 1104 x 462 (2.390) 23.976 fps
Аудио 1: 48 kHz, AC3 Dolby Digital, 3/2 (L,C,R,l,r) + LFE ch, ~384 kbps | rus iTunes
Аудио 2: 48 kHz, AC3 160 kb/s 2 channels| Ukr iTunes
Аудио 3: AC-3 448 kb/s 6 channels, 48.0 kHz Eng

MediaInfo | Log

Log

x264 [info]: profile Progressive High, level 4.1, 4:2:0, 8-bit
x264 [info]: frame I:1639 Avg QP:13.98 size: 82342
x264 [info]: frame P:37810 Avg QP:15.57 size: 31917
x264 [info]: frame B:114704 Avg QP:17.20 size: 8758
x264 [info]: consecutive B-frames: 4.7% 3.7% 12.2% 25.7% 16.5% 18.2% 5.8% 4.2% 2.1% 1.0% 2.0% 3.8%
x264 [info]: mb I I16..4: 10.2% 71.0% 18.8%
x264 [info]: mb P I16..4: 1.1% 12.5% 2.2% P16..4: 27.2% 36.8% 14.7% 3.0% 0.3% skip: 2.2%
x264 [info]: mb B I16..4: 0.1% 0.9% 0.2% B16..8: 30.9% 24.3% 5.3% direct: 5.7% skip:32.6% L0:46.1% L1:41.6% BI:12.3%
x264 [info]: 8x8 transform intra:77.5% inter:54.5%
x264 [info]: direct mvs spatial:100.0% temporal:0.0%
x264 [info]: coded y,uvDC,uvAC intra: 94.2% 97.6% 92.9% inter: 22.5% 35.0% 17.4%
x264 [info]: i16 v,h,dc,p: 3% 14% 7% 76%
x264 [info]: i8 v,h,dc,ddl,ddr,vr,hd,vl,hu: 9% 12% 9% 9% 12% 11% 13% 11% 14%
x264 [info]: i4 v,h,dc,ddl,ddr,vr,hd,vl,hu: 9% 12% 2% 9% 15% 13% 15% 11% 14%
x264 [info]: i8c dc,h,v,p: 44% 25% 16% 15%
x264 [info]: Weighted P-Frames: Y:7.7% UV:5.5%
x264 [info]: ref P L0: 49.5% 9.0% 17.8% 6.1% 5.2% 3.3% 3.2% 1.6% 1.6% 1.2% 1.4% 0.2% 0.0%
x264 [info]: ref B L0: 68.2% 13.3% 6.7% 3.4% 2.5% 2.1% 1.6% 1.0% 0.7% 0.3%
x264 [info]: ref B L1: 93.6% 6.4%
x264 [info]: kb/s:2919.41
x264 [total]: encoded 154153 frames, 12.92 fps, 2919.41 kb/s
Format : Matroska
Format version : Version 4
File size : 2.93 GiB
Duration : 1 h 47 min
Overall bit rate : 3 914 kb/s
Encoded date : UTC 2019-05-03 18:31:11
Writing application : mkvmerge v8.2.0 ('World of Adventure') 64bit
Writing library : libebml v1.3.1 + libmatroska v1.4.2
Video
ID : 1
Format : AVC
Format/Info : Advanced Video Codec
Format profile : High@L4.1
Format settings : CABAC / 11 Ref Frames
Format settings, CABAC : Yes
Format settings, RefFrames : 11 frames
Codec ID : V_MPEG4/ISO/AVC
Duration : 1 h 47 min
Bit rate : 2 919 kb/s
Width : 1 104 pixels
Height : 462 pixels
Display aspect ratio : 2.40:1
Frame rate mode : Constant
Frame rate : 23.976 (24000/1001) FPS
Color space : YUV
Chroma subsampling : 4:2:0
Bit depth : 8 bits
Scan type : Progressive
Bits/(Pixel*Frame) : 0.239
Stream size : 2.19 GiB (75%)
Title : The Lego Movie 2: The Second Part (2019) [rutracker.org]
Writing library : x264 core 157 r2969 d4099dd
Encoding settings : cabac=1 / ref=11 / deblock=1:-3:-2 / analyse=0x3:0x133 / me=umh / subme=11 / psy=1 / psy_rd=1.00:0.05 / mixed_ref=1 / me_range=48 / chroma_me=1 / trellis=2 / 8x8dct=1 / cqm=0 / deadzone=21,11 / fast_pskip=0 / chroma_qp_offset=-3 / threads=12 / lookahead_threads=3 / sliced_threads=0 / nr=0 / decimate=1 / interlaced=0 / bluray_compat=0 / constrained_intra=0 / bframes=11 / b_pyramid=2 / b_adapt=2 / b_bias=0 / direct=3 / weightb=1 / open_gop=0 / weightp=2 / keyint=250 / keyint_min=23 / scenecut=40 / intra_refresh=0 / rc_lookahead=60 / rc=crf / mbtree=0 / crf=16.7 / qcomp=0.60 / qpmin=0 / qpmax=69 / qpstep=4 / vbv_maxrate=50000 / vbv_bufsize=62500 / crf_max=0.0 / nal_hrd=none / filler=0 / ip_ratio=1.40 / pb_ratio=1.30 / aq=3:0.90
Language : English
Default : Yes
Forced : No
Audio #1
ID : 2
Format : AC-3
Format/Info : Audio Coding 3
Commercial name : Dolby Digital
Codec ID : A_AC3
Duration : 1 h 47 min
Bit rate mode : Constant
Bit rate : 384 kb/s
Channel(s) : 6 channels
Channel layout : L R C LFE Ls Rs
Sampling rate : 48.0 kHz
Frame rate : 31.250 FPS (1536 SPF)
Bit depth : 16 bits
Compression mode : Lossy
Stream size : 294 MiB (10%)
Title : DUB [iTunes]
Language : Russian
Service kind : Complete Main
Default : Yes
Forced : No
Audio #2
ID : 3
Format : AC-3
Format/Info : Audio Coding 3
Commercial name : Dolby Digital
Codec ID : A_AC3
Duration : 1 h 47 min
Bit rate mode : Constant
Bit rate : 160 kb/s
Channel(s) : 2 channels
Channel layout : L R
Sampling rate : 48.0 kHz
Frame rate : 31.250 FPS (1536 SPF)
Bit depth : 16 bits
Compression mode : Lossy
Stream size : 123 MiB (4%)
Title : DUB [iTunes]
Language : Ukrainian
Service kind : Complete Main
Default : No
Forced : No
Audio #3
ID : 4
Format : AC-3
Format/Info : Audio Coding 3
Commercial name : Dolby Digital
Codec ID : A_AC3
Duration : 1 h 47 min
Bit rate mode : Constant
Bit rate : 448 kb/s
Channel(s) : 6 channels
Channel layout : L R C LFE Ls Rs
Sampling rate : 48.0 kHz
Frame rate : 31.250 FPS (1536 SPF)
Bit depth : 16 bits
Compression mode : Lossy
Stream size : 343 MiB (11%)
Title : Original
Language : English
Service kind : Complete Main
Default : No
Forced : No
Text #1
ID : 5
Format : UTF-8
Codec ID : S_TEXT/UTF8
Codec ID/Info : UTF-8 Plain Text
Duration : 1 h 45 min
Bit rate : 5 b/s
Count of elements : 41
Stream size : 3.90 KiB (0%)
Title : Forced
Language : Russian
Default : Yes
Forced : No
Text #2
ID : 6
Format : UTF-8
Codec ID : S_TEXT/UTF8
Codec ID/Info : UTF-8 Plain Text
Duration : 1 h 46 min
Bit rate : 128 b/s
Count of elements : 1905
Stream size : 100 KiB (0%)
Title : Full
Language : Russian
Default : No
Forced : No
Text #3
ID : 7
Format : UTF-8
Codec ID : S_TEXT/UTF8
Codec ID/Info : UTF-8 Plain Text
Duration : 1 h 32 min
Bit rate : 5 b/s
Count of elements : 40
Stream size : 3.73 KiB (0%)
Title : Forced
Language : Ukrainian
Default : No
Forced : No
Text #4
ID : 8
Format : UTF-8
Codec ID : S_TEXT/UTF8
Codec ID/Info : UTF-8 Plain Text
Duration : 1 h 46 min
Bit rate : 90 b/s
Count of elements : 2152
Stream size : 70.2 KiB (0%)
Title : Full
Language : English
Default : No
Forced : No
Menu
00:00:00.000 : en:Chapter 01
00:04:15.881 : en:Chapter 02
00:12:35.046 : en:Chapter 03
00:15:09.951 : en:Chapter 04
00:21:57.733 : en:Chapter 05
00:29:50.330 : en:Chapter 06
00:36:22.680 : en:Chapter 07
00:44:47.977 : en:Chapter 08
00:50:50.506 : en:Chapter 09
00:57:05.255 : en:Chapter 10
01:01:07.163 : en:Chapter 11
01:09:48.351 : en:Chapter 12
01:17:31.939 : en:Chapter 13
01:21:58.122 : en:Chapter 14
01:26:49.538 : en:Chapter 15
01:34:06.266 : en:Chapter 16
01:38:30.571 : en:Chapter 17

Скриншоты




[cybertorrent.net].t2579.torrent 
Торрент: Зарегистрирован [ 2019-05-06 16:58 ] · A39F0A4F0BC09EFF4264DD868CF169025AA68518

Скачать .torrent

Скачать

15 KB

Статус: проверено
Скачан: 0 раз
Размер: 2,93 GB
terms.php
Профиль ЛС
Показать сообщения:    

Текущее время: 17-Ноя 15:38

Часовой пояс: UTC ± 0



Вы не можете начинать темы
Вы не можете отвечать на сообщения
Вы не можете редактировать свои сообщения
Вы не можете удалять свои сообщения
Вы не можете голосовать в опросах
Вы не можете прикреплять файлы к сообщениям
Вы можете скачивать файлы