Статистика раздачи
Размер:  2,51 GB   |    Зарегистрирован:  6 месяцев 6 дней   |    Скачан:  0 раз

Полного источника не было: Никогда

 
     
 
 

солнышко ®

Пол:
Не указан
Стаж:
7 месяцев 30 дней
Сообщений:
565

Mamma Mia! 2 / Mamma Mia! Here We Go Again- Страна: Великобритания, США
Жанр: мюзикл, комедия
Год выпуска: 2018
Продолжительность: 01:53:39
Перевод: Профессиональный (дублированный)
Субтитры: русские, английские
Оригинальная аудиодорожка: английский
Режиссер: Ол Паркер / Ol Parker
В ролях: Лили Джеймс, Аманда Сайфред, Мэрил Стрип, Доминик Купер, Шер, Кристин Барански, Пирс Броснан, Колин Фёрт, Энди Гарсиа, Стеллан Скарсгард
Описание: Сбежать на райский греческий остров, чтобы гулять по улочкам очаровательного города, наслаждаться местной кухней, танцевать до утра, кататься на яхте и влюбиться без памяти - что может быть лучше? Звучит, как идеальный план на лето... да и на всю жизнь тоже.
Сэмпл: http://sendfile.su/1492708

Качество видео: BDRip-AVC (Mamma.Mia!.Here.We.Go.Again.2018.BDRemux.TeamHD)
Формат видео: MKV
Видео: x264, 888x370 (2.40:1) 23,976 fps, ~2267 kbps, 0,288 bit/pixel
Аудио 1: 48 kHz, AC3 Dolby Digital, 3/2 (L,C,R,l,r) + LFE ch, ~448 kbps | Дубляж
Аудио 2: 48 kHz, AC3 Dolby Digital, 3/2 (L,C,R,l,r) + LFE ch, ~448 kbps | Английский
Формат субтитров: softsub (SRT)

MediaInfo

General
Unique ID : 205788671506118532990237096833735675896 (0x9AD174DB0448EB9E1C1021C4E7674FF8)
Format : Matroska
Format version : Version 4 / Version 2
File size : 2.51 GiB
Duration : 1h 53mn
Overall bit rate : 3 166 Kbps
Encoded date : UTC 2019-05-05 09:20:06
Writing application : mkvmerge v33.0.0 ('A Little Bit of Madness') 64-bit
Writing library : libebml v1.3.7 + libmatroska v1.5.0
Video #1
ID : 1
Format : AVC
Format/Info : Advanced Video Codec
Format profile : High@L4.1
Format settings, CABAC : Yes
Format settings, ReFrames : 12 frames
Codec ID : V_MPEG4/ISO/AVC
Duration : 1h 53mn
Bit rate : 2 267 Kbps
Width : 888 pixels
Height : 370 pixels
Display aspect ratio : 2.40:1
Frame rate mode : Constant
Frame rate : 23.976 (24000/1001) fps
Color space : YUV
Chroma subsampling : 4:2:0
Bit depth : 8 bits
Scan type : Progressive
Bits/(Pixel*Frame) : 0.288
Stream size : 1.80 GiB (72%)
Writing library : x264 core 157 r2935 545de2f
Encoding settings : cabac=1 / ref=12 / deblock=1:-3:-2 / analyse=0x3:0x133 / me=umh / subme=10 / psy=1 / psy_rd=1.00:0.00 / mixed_ref=1 / me_range=32 / chroma_me=1 / trellis=2 / 8x8dct=1 / cqm=0 / deadzone=21,11 / fast_pskip=0 / chroma_qp_offset=-2 / threads=6 / lookahead_threads=1 / sliced_threads=0 / nr=0 / decimate=1 / interlaced=0 / bluray_compat=0 / constrained_intra=0 / bframes=10 / b_pyramid=2 / b_adapt=2 / b_bias=0 / direct=1 / weightb=1 / open_gop=0 / weightp=2 / keyint=250 / keyint_min=23 / scenecut=40 / intra_refresh=0 / rc=crf / mbtree=0 / crf=18.1 / qcomp=0.65 / qpmin=0 / qpmax=69 / qpstep=4 / ip_ratio=1.40 / pb_ratio=1.30 / aq=3:0.90
Language : English
Default : Yes
Forced : No
Audio #2
ID : 2
Format : AC-3
Format/Info : Audio Coding 3
Mode extension : CM (complete main)
Format settings, Endianness : Big
Codec ID : A_AC3
Duration : 1h 53mn
Bit rate mode : Constant
Bit rate : 448 Kbps
Channel(s) : 6 channels
Channel positions : Front: L C R, Side: L R, LFE
Sampling rate : 48.0 KHz
Frame rate : 31.250 fps (1536 spf)
Compression mode : Lossy
Stream size : 364 MiB (14%)
Language : Russian
Default : Yes
Forced : No
Audio #3
ID : 3
Format : AC-3
Format/Info : Audio Coding 3
Mode extension : CM (complete main)
Format settings, Endianness : Big
Codec ID : A_AC3
Duration : 1h 53mn
Bit rate mode : Constant
Bit rate : 448 Kbps
Channel(s) : 6 channels
Channel positions : Front: L C R, Side: L R, LFE
Sampling rate : 48.0 KHz
Frame rate : 31.250 fps (1536 spf)
Compression mode : Lossy
Stream size : 364 MiB (14%)
Language : English
Default : No
Forced : No
Text #4
ID : 4
Format : UTF-8
Codec ID : S_TEXT/UTF8
Codec ID/Info : UTF-8 Plain Text
Duration : 1h 52mn
Bit rate : 33 bps
Count of elements : 512
Stream size : 27.3 KiB (0%)
Title : Songs
Language : Russian
Default : Yes
Forced : No
Text #5
ID : 5
Format : UTF-8
Codec ID : S_TEXT/UTF8
Codec ID/Info : UTF-8 Plain Text
Duration : 1h 52mn
Bit rate : 88 bps
Count of elements : 1498
Stream size : 72.6 KiB (0%)
Title : Blu-ray CEE
Language : Russian
Default : No
Forced : No
Text #6
ID : 6
Format : UTF-8
Codec ID : S_TEXT/UTF8
Codec ID/Info : UTF-8 Plain Text
Duration : 1h 51mn
Bit rate : 68 bps
Count of elements : 1947
Stream size : 56.1 KiB (0%)
Title : Full
Language : English
Default : No
Forced : No
Text #7
ID : 7
Format : UTF-8
Codec ID : S_TEXT/UTF8
Codec ID/Info : UTF-8 Plain Text
Duration : 1h 51mn
Bit rate : 121 bps
Count of elements : 2134
Stream size : 99.8 KiB (0%)
Title : SDH
Language : English
Default : No
Forced : No
Text #8
ID : 8
Format : UTF-8
Codec ID : S_TEXT/UTF8
Codec ID/Info : UTF-8 Plain Text
Duration : 1h 51mn
Bit rate : 153 bps
Count of elements : 2134
Stream size : 126 KiB (0%)
Title : SDH-Colored
Language : English
Default : No
Forced : No

лог

raw [info]: 888x370p 1:1 @ 24000/1001 fps (cfr)
x264 [info]: using SAR=1/1
x264 [info]: using cpu capabilities: MMX2 SSE2Fast SSSE3 SSE4.2 AVX XOP FMA3 BMI1
x264 [info]: profile High, level 4.1, 4:2:0, 8-bit
x264 [info]: frame I:1405 Avg QP:18.04 size: 67055
x264 [info]: frame P:34792 Avg QP:19.70 size: 24891
x264 [info]: frame B:127311 Avg QP:22.00 size: 7638
x264 [info]: consecutive B-frames: 1.4% 1.2% 6.2% 32.4% 19.4% 29.2% 3.4% 2.4% 1.3% 1.9% 1.2%
x264 [info]: mb I I16..4: 2.4% 69.1% 28.5%
x264 [info]: mb P I16..4: 0.4% 9.7% 3.9% P16..4: 34.3% 24.2% 21.5% 1.8% 0.7% skip: 3.5%
x264 [info]: mb B I16..4: 0.1% 1.0% 0.6% B16..8: 36.6% 13.9% 5.5% direct: 6.4% skip:35.9% L0:41.2% L1:38.8% BI:20.0%
x264 [info]: 8x8 transform intra:66.3% inter:58.5%
x264 [info]: coded y,uvDC,uvAC intra: 86.3% 94.1% 84.8% inter: 27.9% 25.3% 13.7%
x264 [info]: i16 v,h,dc,p: 64% 11% 5% 19%
x264 [info]: i8 v,h,dc,ddl,ddr,vr,hd,vl,hu: 19% 13% 7% 7% 11% 11% 11% 10% 12%
x264 [info]: i4 v,h,dc,ddl,ddr,vr,hd,vl,hu: 31% 8% 7% 6% 10% 10% 9% 9% 10%
x264 [info]: i8c dc,h,v,p: 40% 21% 23% 16%
x264 [info]: Weighted P-Frames: Y:11.0% UV:7.1%
x264 [info]: ref P L0: 46.4% 14.7% 14.5% 6.4% 4.6% 3.4% 2.8% 1.7% 1.5% 1.3% 1.2% 1.2% 0.1% 0.0%
x264 [info]: ref B L0: 74.6% 10.0% 5.5% 3.0% 2.1% 1.5% 1.2% 0.8% 0.7% 0.5% 0.2%
x264 [info]: ref B L1: 94.5% 5.5%
x264 [info]: kb/s:2267.14
x264 [total]: encoded 163508 frames, 8.98 fps, 2267.14 kb/s

Скриншоты


[cybertorrent.net].t2564.torrent 
Торрент: Зарегистрирован [ 2019-05-05 16:32 ] · 6C863B2DBA825406F72954397DEF5D7F4ED0EE3D

Скачать .torrent

Скачать

13 KB

Статус: проверено
Скачан: 0 раз
Размер: 2,51 GB
terms.php
Профиль ЛС
Показать сообщения:    

Текущее время: 12-Ноя 06:24

Часовой пояс: UTC ± 0



Вы не можете начинать темы
Вы не можете отвечать на сообщения
Вы не можете редактировать свои сообщения
Вы не можете удалять свои сообщения
Вы не можете голосовать в опросах
Вы не можете прикреплять файлы к сообщениям
Вы можете скачивать файлы