Статистика раздачи
Размер:  5,99 GB   |    Зарегистрирован:  7 месяцев 8 дней   |    Скачан:  0 раз

Полного источника не было: Никогда

 
     
 
 

Гость ®

Пол:
Не указан

Виски Кавалер | Whiskey Cavalier- Год выпуска: 2019
Страна: США
Жанр: Боевик, триллер, драма, комедия, приключения
Продолжительность: ~ 00:43:00-Перевод: Профессиональный (дублированный) | LostFilm-Режиссёр: Питер Атенсио, Джон Ист, Роб Бэйли-В ролях: Скотт Фоули, Лорен Кохэн, Ана Ортис, Тайлер Джеймс Уильямс, Вир Даc, Дилан Уолш, Джош Хопкинс, Дэвид Финн, Кристос Василопулос, Аликс Бенезек, Ядран Малжкович и др.-Описание: Агент ФБР Уилл Чейз, известный под кодовым именем Виски Кавалер, — парень что надо. Бьёт наотмашь, стреляет наповал и живёт жизнью, полной приключений. Одна проблема: Чейз сентиментален, регулярно поддаётся чувствам и даже может всплакнуть из-за бросившей его подружки. В напарники ему назначают оперативницу ЦРУ Франческу «Фрэнки» Троубридж. Она прагматична, бескомпромиссна и сопли пускать не будет.
Вместе с ней Чейз организует команду шпионов, периодически спасает мир, ищет баланс между флиртом и дружбой, а главное — учится не давать волю эмоциям. Последнее окажется почти невыполнимым.- -[box=#aed8ff,#003465]Ссылка на предыдущие и альтернативные раздачи[/box]-Исходник: WEB-DL 1080p
Качество: WEB-DLRip
Формат: AVI
Видео: XviD, 720x400 (16:9), 23.976 кадров/сек, ~1600 Кбит/сек
Аудио Rus: AC3, 48,0 kHz, 2 ch, 192 Кбит/сек | LostFilm
Аудио Eng: AC3, 48,0 kHz, 2 ch, 192 Кбит/сек
Субтитры: Русские (Forced, Full), английские (SDH) Серии: 1-8
Реклама: Отсутствует-

Список серий

01. Pilot / Пилот
02. The Czech List / Чешский список
03. When in Rome / Однажды в Риме
04. Mrs. & Mr. Trowbridge / Миссис и мистер Троубридж
05. The English Job / Ограбление по-английски
06. Five Spies and a Baby / Пять шпионов и младенец
07. Spain, Trains, and Automobiles / Испания, поезда и автомобили
08. Confessions of a Dangerous Mind / Погружение в опасные мысли
09. Hearts & Minds / Умы и сердца
10. Good Will Hunting / Умница Уилл на охоте
-

MediaInfo

Общее
Полное имя : E:\Whiskey Cavalier (Season 1) WEB-DLRip LostFilm\Whiskey.Cavalier.S01E01.WEB-DLRip.RGzsRutracker.[Wentworth_Miller].avi
Формат : AVI
Формат/Информация : Audio Video Interleave
Размер файла : 616 Мбайт
Продолжительность : 43 м. 7 с.
Общий поток : 1998 Кбит/сек
Название фильма : Whiskey Cavalier 01x01 (Pilot) - Release by Wentworth_Miller
Программа кодирования : VirtualDubMod 1.5.10.3 | www.virtualdub-fr.org || (build 2550/release)
Видео
Идентификатор : 0
Формат : MPEG-4 Visual
Профиль формата : Advanced Simple@L5
Настройки формата : BVOP1
Параметр BVOP формата : 1
Параметр QPel формата : Нет
Параметр GMC формата : Без точки перехода
Параметр матрицы формата : Default (MPEG)
Идентификатор кодека : XVID
Идентификатор кодека/Подсказка : XviD
Продолжительность : 43 м. 7 с.
Битрейт : 1600 Кбит/сек
Ширина : 720 пикселей
Высота : 400 пикселей
Соотношение сторон : 16:9
Частота кадров : 23,976 (24000/1001) кадра/сек
Цветовое пространство : YUV
Субдискретизация насыщенности : 4:2:0
Битовая глубина : 8 бит
Тип развёртки : Прогрессивная
Метод сжатия : С потерями
Бит/(Пиксели*Кадры) : 0.232
Размер потока : 493 Мбайт (80%)
Библиотека кодирования : XviD 67
Аудио #1
Идентификатор : 1
Формат : AC-3
Формат/Информация : Audio Coding 3
Коммерческое название : Dolby Digital
Идентификатор кодека : 2000
Продолжительность : 43 м. 7 с.
Вид битрейта : Постоянный
Битрейт : 192 Кбит/сек
Каналы : 2 канала
ChannelLayout : L R
Частота : 48,0 КГц
Частота кадров : 31,250 кадров/сек (1536 SPF)
Битовая глубина : 16 бит
Метод сжатия : С потерями
Размер потока : 59,2 Мбайт (10%)
Выравнивание : Разделение по промежуткам
Продолжительность промежутка : 42 мс. (1,00 видеокадр)
Время предзагрузки промежутка : 500 мс.
ServiceKind/String : Complete Main
Аудио #2
Идентификатор : 2
Формат : AC-3
Формат/Информация : Audio Coding 3
Коммерческое название : Dolby Digital
Идентификатор кодека : 2000
Продолжительность : 43 м. 7 с.
Вид битрейта : Постоянный
Битрейт : 192 Кбит/сек
Каналы : 2 канала
ChannelLayout : L R
Частота : 48,0 КГц
Частота кадров : 31,250 кадров/сек (1536 SPF)
Битовая глубина : 16 бит
Метод сжатия : С потерями
Размер потока : 59,2 Мбайт (10%)
Выравнивание : Разделение по промежуткам
Продолжительность промежутка : 42 мс. (1,00 видеокадр)
Время предзагрузки промежутка : 500 мс.
ServiceKind/String : Complete Main
-

Скриншоты

-

Внимание! Раздача ведётся путём добавления новых серий

Внимание! Раздача ведётся путём добавления новых серий; при каждом добавлении создаётся новый торрент. Чтобы начать докачку новой серии, пользователям необходимо сделать следующее:
(1) остановить скачивание,
(2) удалить старый торрент у себя из клиента (старые серии удалять не надо),
(3) скачать новый торрент и запустить его у себя в клиенте вместо старого, при этом указать клиенту путь в старую папку куда и должно происходить скачивание новых серий.
Ваш клиент при этом должен произвести хеширование (проверку) старой папки (если не производит сам - помогите ему сделать это), и будет докачивать только те серии которых у вас ещё нет. Старые серии при этом не удаляются, а продолжают раздаваться!
Eсли вы уже удалили старые серии, то предотвратить повторную закачку старых серий можно, отжав галочку в соответствующих местах при запуске нового торрента. По возможности, желательно не удалять старые серии как можно дольше чтобы релизёр не столько продолжал раздавать старые серии, а смог сконцентрироваться на новых.
-Релиз группы:
[cybertorrent.net].t2561.torrent 
Торрент: Зарегистрирован [ 2019-05-05 16:32 ] · 4C57B9D662E4801D61065739D3357E7DA0859AC9

Скачать .torrent

Скачать

33 KB

Статус: проверено
Скачан: 0 раз
Размер: 5,99 GB
terms.php
Показать сообщения:    

Текущее время: 14-Дек 01:34

Часовой пояс: UTC ± 0



Вы не можете начинать темы
Вы не можете отвечать на сообщения
Вы не можете редактировать свои сообщения
Вы не можете удалять свои сообщения
Вы не можете голосовать в опросах
Вы не можете прикреплять файлы к сообщениям
Вы можете скачивать файлы