Статистика раздачи
Размер:  746 MB   |    Зарегистрирован:  6 месяцев 11 дней   |    Скачан:  0 раз

Полного источника не было: Никогда

 
     
 
 

Гость ®

Пол:
Не указан

Заповедник
Страна: Россия
Жанр: комедия
Год выпуска: 2018
Продолжительность: 01:48:12
Субтитры: нет-Режиссер: Анна Матисон-В ролях: Сергей Безруков, Евгения Крегжде, Анна Михалкова, Гоша Куценко, Александр Семчев, Дмитрий Хрусталев, Виктор Бычков, Софья Евстигнеева, Ярослава Дегтярёва, Леонид Агутин-Описание: Константин, автор песен и виртуозный гитарист, сбегает от накопившихся проблем в заповедник «Михайловское». Костя давно лишился всех способов заработка, почти отчаялся быть услышанным и живет по инерции, часто налегая на алкоголь. Жена и дочь собираются уезжать в Канаду, а в голове бесконечно крутятся вопросы: что именно пошло не так? Как это исправить? Нужно ли вообще кому-то моё творчество, или я сам убедил себя в этом? Возможно, у Константина и достаточно сил, чтобы попытаться всё изменить, но он сильно сомневается, что есть, ради чего и ради кого стараться. Тем не менее, Заповедник — на то и Заповедник, чтобы собраться с мыслями, разбить минное поле собственной жизни на участки и приняться за работу.- -Качество видео: WEB-DLRip
Формат видео: AVI
Видео: 688x288 (2.39:1), 23.976 fps, XviD build 73 ~825 kbps avg, 0.17 bit/pixel
Аудио: 48 kHz, MPEG Layer 3, 2 ch, ~128.00 kbps avg - iTunes-[box]Сэмпл[/box]-

MediaInfo

Код:Формат : AVI
Формат/Информация : Audio Video Interleave
Размер файла : 746 Мбайт
Продолжительность : 1 ч. 48 м.
Общий поток : 963 Кбит/сек
Название фильма : Заповедник_2018_WEB-DLRip
Программа кодирования : VirtualDubMod 1.5.10.3 | www.virtualdub-fr.org || (build 2550/release)
Авторское право : порошков
Видео
Идентификатор : 0
Формат : MPEG-4 Visual
Профиль формата : Advanced Simple@L5
Настройки формата : BVOP1 / Custom Matrix
Параметр BVOP формата : 1
Параметр QPel формата : Нет
Параметр GMC формата : Без точки перехода
Параметр матрицы формата : Выборочная
Идентификатор кодека : XVID
Идентификатор кодека/Подсказка : XviD
Продолжительность : 1 ч. 48 м.
Битрейт : 826 Кбит/сек
Ширина : 688 пикселей
Высота : 288 пикселей
Соотношение сторон : 2,40:1
Частота кадров : 23,976 (24000/1001) кадра/сек
Цветовое пространство : YUV
Субдискретизация насыщенности : 4:2:0
Битовая глубина : 8 бит
Тип развёртки : Прогрессивная
Метод сжатия : С потерями
Бит/(Пиксели*Кадры) : 0.174
Размер потока : 639 Мбайт (86%)
Библиотека кодирования : XviD 73
Аудио
Идентификатор : 1
Формат : MPEG Audio
Версия формата : Version 1
Профиль формата : Layer 3
Идентификатор кодека : 55
Идентификатор кодека/Подсказка : MP3
Продолжительность : 1 ч. 48 м.
Вид битрейта : Постоянный
Битрейт : 128 Кбит/сек
Каналы : 2 канала
Частота : 48,0 КГц
Частота кадров : 41,667 кадра/сек (1152 SPF)
Метод сжатия : С потерями
Размер потока : 99,1 Мбайт (13%)
Выравнивание : Соединение по промежуткам
Продолжительность промежутка : 42 мс. (1,00 видеокадр)
Время предзагрузки промежутка : 504 мс.
Библиотека кодирования : LAME3.99r
Настройки программы : -m s -V 4 -q 2 -lowpass 17 -b 128

Скриншоты


[cybertorrent.net].t2555.torrent 
Торрент: Зарегистрирован [ 2019-05-05 16:32 ] · FE5A6EDCD728DCF4E2090DCDFED106C7A9DF6233

Скачать .torrent

Скачать

15 KB

Статус: проверено
Скачан: 0 раз
Размер: 746 MB
terms.php
Показать сообщения:    

Текущее время: 16-Ноя 21:50

Часовой пояс: UTC ± 0



Вы не можете начинать темы
Вы не можете отвечать на сообщения
Вы не можете редактировать свои сообщения
Вы не можете удалять свои сообщения
Вы не можете голосовать в опросах
Вы не можете прикреплять файлы к сообщениям
Вы можете скачивать файлы