Статистика раздачи
Размер:  244 MB   |    Зарегистрирован:  6 месяцев 8 дней   |    Скачан:  0 раз

Полного источника не было: Никогда

 
     
 
 

Гость ®

Пол:
Не указан

Сказки старого пианино. Иоганн Штраус
Страна: Беларусь
Жанр: мультфильм
Продолжительность: 00:13:08
Год выпуска: 2015
Режиссёр: Елена Петкевич
Описание: Действие разворачивается в Вене – театральной столице мира. «Больше развлечений!» - был девиз знаменитой императрицы Марии Терезии: опера, балет, маскарады были неотъемлемой частью светской жизни. А еще Вена была домом великой музыкальной династии Штраусов...
Качество: WEBRip
Формат: AVI
Видео: 2393 kbps, 720х400 (16:9), 25.000 fps, MPEG-4 Visual (XviD)
Аудио: 192 kbps, 44.1 kHz, 2 channels, MPEG Audio (MP3)
Субтитры: отсутствуют

Подробные технические данные

General
Complete name : Сказки старого пианино. Иоганн Штраус.avi
Format : AVI
Format/Info : Audio Video Interleave
File size : 244 MiB
Duration : 13mn 8s
Overall bit rate : 2 595 Kbps
Writing application : MEncoder SVN-r30881(20100311-gcc4.3.3)
Writing library : VirtualDub build 35491/release
Video
ID : 0
Format : MPEG-4 Visual
Format profile : Advanced Simple@L5
Format settings, BVOP : 2
Format settings, QPel : No
Format settings, GMC : No warppoints
Format settings, Matrix : Default (H.263)
Codec ID : XVID
Codec ID/Hint : XviD
Duration : 13mn 8s
Bit rate : 2 393 Kbps
Width : 720 pixels
Height : 400 pixels
Display aspect ratio : 16:9
Frame rate : 25.000 fps
Color space : YUV
Chroma subsampling : 4:2:0
Bit depth : 8 bits
Scan type : Progressive
Compression mode : Lossy
Bits/(Pixel*Frame) : 0.332
Stream size : 225 MiB (92%)
Writing library : XviD 73
Audio
ID : 1
Format : MPEG Audio
Format version : Version 1
Format profile : Layer 3
Mode : Joint stereo
Mode extension : MS Stereo
Codec ID : 55
Codec ID/Hint : MP3
Duration : 13mn 8s
Bit rate mode : Constant
Bit rate : 192 Kbps
Channel(s) : 2 channels
Sampling rate : 44.1 KHz
Compression mode : Lossy
Stream size : 18.0 MiB (7%)
Alignment : Split accross interleaves
Interleave, duration : 40 ms (1.00 video frame)
Interleave, preload duration : 500 ms
Writing library : LAME3.98

Скриншоты

[cybertorrent.net].t2551.torrent 
Торрент: Зарегистрирован [ 2019-05-05 16:32 ] · C913101DB4635FFC71996E1663A2A5499EBEB4E8

Скачать .torrent

Скачать

20 KB

Статус: проверено
Скачан: 0 раз
Размер: 244 MB
terms.php
Показать сообщения:    

Текущее время: 14-Ноя 06:44

Часовой пояс: UTC ± 0



Вы не можете начинать темы
Вы не можете отвечать на сообщения
Вы не можете редактировать свои сообщения
Вы не можете удалять свои сообщения
Вы не можете голосовать в опросах
Вы не можете прикреплять файлы к сообщениям
Вы можете скачивать файлы