Статистика раздачи
Размер:  6,01 GB   |    Зарегистрирован:  6 месяцев 11 дней   |    Скачан:  0 раз

Полного источника не было: Никогда

 
     
 
 

Гость ®

Пол:
Не указан

Военная разведка. Западный фронт- Год выпуска: 2010
Производство: «"Никола-фильм", "Грин-фильм", "Телепроект" "ИЗАРУС-фильм"»
Жанр: Приключения, военный
Продолжительность: ~ 52 мин.
Субтитры: Отсутствуют-Режиссер: Алексей Праздников-В ролях: Павел Трубинер, Филипп Азаров, Степан Бекетов, Борис Щербаков, Сергей Кошонин, Евгений Ганелин, Лев Дуров, Владимир Гостюхин, Кирилл Сафонов, Мария Горбань, Лянка Грыу, Андрей Ильин, Борис Смолкин, Ольга Ломоносова, Юрий Ицков, Михаил Колядин-Описание: Первый восьмисерийный блок («Западный фронт», четыре фильма по две серии каждый) посвящен деятельности группы армейских разведчиков-диверсантов в первой половине Великой Отечественной Войны. Это история трёх боевых товарищей с непростыми судьбами. Командование поручает им выполнение самых трудных заданий. Но наши герои с честью выходят из кажущихся безвыходными ситуаций.
В первом фильме группе разведчиков, заброшенных в немецкий тыл, предстоит борьба с созданной гитлеровцами бандой, маскирующейся под партизанский отряд. Во главе банды стоит хитрый, опасный, безжалостный главарь, обладающий редким умением перевоплощаться. Задача разведчиков осложняется строгим приказом командования – взять главаря живым.
Во втором фильме разведчикам поручается найти и вывезти бесценную коллекцию предметов искусства, похищенную фашистами при оккупации Петергофа. Действовать приходится в лесах Белоруссии в сотрудничестве с местными партизанами. Но враг коварен и просто так награбленное не отдаст. Удастся ли разведчикам не дать врагу пустить себя по ложному следу?
В третьем фильме перед нашими героями снова ставят трудную задачу. Их забрасывают в оккупированную немцами Польшу. Разведчики должны найти и доставить в Москву нашего резидента, обладающего информацией исключительной важности. Его активно ищут и фашисты, подставляющие нашей группе лже-резидента.
В четвертом фильме разведчикам придется сменить обстановку и отправиться уже в наш глубокий тыл. Советской контрразведке становится известно, что на заводе, производящем стратегически важное оборудование, гитлеровцы планируют организовать серию терактов, для чего готовятся прислать группу матерых диверсантов. Выясняется, что на заводе также действует тщательно законспирированная шпионская сеть. Нашим разведчикам предстоит найти и обезвредить вражеских агентов и их пособников.-Релиз группы -Доп. информация : 4 фильма по 2 серии.- Источник рипа-Все раздачи сериала
Семпл
Кино-Театр-Качество: DVDRip
Формат: AVI
Видео кодек: XviD
Аудио кодек: AC3
Видео: 720x400 (1.80:1), 25 fps, XviD build 73 ~1699 kbps avg, 0.24 bit/pixell
Аудио: 48 kHz, AC3 Dolby Digital, 3/2 (L,C,R,l,r) + LFE ch, ~384.00 kbps avg-

MediaInfo

Код:General
General
Complete name : D:\Военная разведка. Западный фронт\Voennaya razvedka.Zapadnii.front.s01e01.2010.DVDRip.RG.Russkie.serialy.avi
Format : AVI
Format/Info : Audio Video Interleave
File size : 782 MiB
Duration : 52mn 14s
Overall bit rate : 2 094 Kbps
Writing application : VirtualDubMod 1.5.10.3 | www.virtualdub-fr.org || (build 2550/release)
Writing library : VirtualDubMod build 2550/release
Video
ID : 0
Format : MPEG-4 Visual
Format profile : Advanced Simple@L5
Format settings, BVOP : 2
Format settings, QPel : No
Format settings, GMC : No warppoints
Format settings, Matrix : Custom
Codec ID : XVID
Codec ID/Hint : XviD
Duration : 52mn 14s
Bit rate : 1 700 Kbps
Width : 720 pixels
Height : 400 pixels
Display aspect ratio : 16:9
Frame rate : 25.000 fps
Color space : YUV
Chroma subsampling : 4:2:0
Bit depth : 8 bits
Scan type : Progressive
Compression mode : Lossy
Bits/(Pixel*Frame) : 0.236
Stream size : 635 MiB (81%)
Writing library : XviD 73
Audio
ID : 1
Format : AC-3
Format/Info : Audio Coding 3
Mode extension : CM (complete main)
Format settings, Endianness : Big
Codec ID : 2000
Duration : 52mn 14s
Bit rate mode : Constant
Bit rate : 384 Kbps
Channel(s) : 6 channels
Channel positions : Front: L C R, Side: L R, LFE
Sampling rate : 48.0 KHz
Bit depth : 16 bits
Compression mode : Lossy
Stream size : 144 MiB (18%)
Alignment : Split accross interleaves
Interleave, duration : 40 ms (1.00 video frame)
Interleave, preload duration : 500 ms

Скриншоты








[cybertorrent.net].t2541.torrent 
Торрент: Зарегистрирован [ 2019-05-05 16:32 ] · 5A6278F0A50E613A859B89A825CEEA792A5CFA94

Скачать .torrent

Скачать

31 KB

Статус: проверено
Скачан: 0 раз
Размер: 6,01 GB
terms.php
Показать сообщения:    

Текущее время: 17-Ноя 15:39

Часовой пояс: UTC ± 0



Вы не можете начинать темы
Вы не можете отвечать на сообщения
Вы не можете редактировать свои сообщения
Вы не можете удалять свои сообщения
Вы не можете голосовать в опросах
Вы не можете прикреплять файлы к сообщениям
Вы можете скачивать файлы