Статистика раздачи
Размер:  8,99 GB   |    Зарегистрирован:  6 месяцев 11 дней   |    Скачан:  0 раз

Полного источника не было: Никогда

 
     
 
 

Гость ®

Пол:
Не указан

Ривердэйл | Riverdale- Год выпуска: 2018
Страна: США
Жанр: Драма, мелодрама, криминал, детектив
Продолжительность: ~ 00:43:00-Перевод: Профессиональный (многоголосый закадровый) | Пифагор" по заказу "Netflix-Режиссёр: Ли Толанд Кригер, Кевин Родни Салливан, Доун Уилкинсон-В ролях: Кей-Джей Апа, Лили Рейнхарт, Камила Мендес, Коул Спроус, Мэделин Петш, Эшли Мюррэй, Мэдхен Амик, Люк Перри, Марисоль Николс, Росс Батлер, Кейси Котт, Коуди Кирсли, Сара Хабель, Айри Хайлеу, Локлин Манро, Ашанти Бромфилд, Оливия Райан Штерн, Кэйтлин Митчелл-Маркович, Мейджор Курда, Робин Гивенс, Тревор Стайнс, Натали Болтт, Барклей Хоуп, Тиера Сковбай, Колин Лоуренс, Джордан Кэллоуэй, Элвин Сандерс, Том Макбет, Адайн Брэдли, Шеннон Пёрсер, Скит Ульрих, Роб Рако, Рауль Кастильо, Молли Рингуолд и др.-Описание: Сериал расскажет о жизни и приключениях жизнерадостного и никогда не унывающего подростка Арчи Эндрюса, а также Бэтти Купер, Вероники Лодж и их друзей из Ривердейла. Действие разворачивается в современном мире, а главные герои решают исследовать сокрытую от посторонних сторону жизни маленького мирного городка со всеми его странностями и тёмными тайнами, прячущимися за праздничным фасадом.- -[box=#aed8ff,#003465]Ссылка на предыдущие и альтернативные раздачи[/box]-Качество: WEB-DLRip
Формат: AVI
Видео: XviD, 720x400, 23,976 кадров/сек, ~1500 Кбит/сек
Аудио Rus: MP3, 48 kHz, 2 ch, 128 Кбит/сек | Пифагор
Аудио Eng: MP3, 48 kHz, 2 ch, 128 Кбит/сек
Субтитры: Русские (Forced | Full (Netflix)), английские
Реклама: Отсутствует-

✘ Релиз ✘

• За звук и субтитры благодарю BenderBEST
-

Список серий

01. Глава тридцать шестая. День труда / Chapter Thirty-Six: Labor Day
02. Глава тридцать седьмая. В раздоре с миром и судьбой
/ Chapter Thirty-Seven: Fortune and Men's Eyes
03. Глава тридцать восьмая. Внизу не хуже, чем наверху
/ Chapter Thirty-Eight: As Above, So Below
04. Глава тридцать девятая. Клуб Полночь / Chapter Thirty-Nine: The Midnight Club
05. Глава сороковая. Большой побег / Chapter Forty: The Great Escape
06. Глава сорок первая. Охота. / Chapter Forty-One: Manhunter
07. Глава сорок вторая. Человек в черном / Chapter Forty-Two: The Man in Black
08. Глава сорок третья. Эпидемия / Chapter Forty-Three: Outbreak
09. Глава сорок четвертая. Выхода нет / Chapter Forty-Four: No Exit
-

MediaInfo

Общее
Полное имя : E:\Riverdale (Season 3) WEB-DLRip\Riverdale.S03E01.Chapter.Thirty-Six.Labor.Day.WEB-DLRip.[Wentworth_Miller].avi
Формат : AVI
Формат/Информация : Audio Video Interleave
Размер файла : 542 Мбайт
Продолжительность : 42 м. 48 с.
Общий поток : 1770 Кбит/сек
Программа кодирования : VirtualDubMod 1.5.10.2 (build 2540/release)
Библиотека кодирования : VirtualDubMod build 2540/release
Видео
Идентификатор : 0
Формат : MPEG-4 Visual
Профиль формата : Advanced Simple@L5
Настройки формата : BVOP1
Параметр BVOP формата : 1
Параметр QPel формата : Нет
Параметр GMC формата : Без точки перехода
Параметр матрицы формата : Default (MPEG)
Идентификатор кодека : XVID
Идентификатор кодека/Подсказка : XviD
Продолжительность : 42 м. 48 с.
Битрейт : 1500 Кбит/сек
Ширина : 720 пикселей
Высота : 400 пикселей
Соотношение сторон : 16:9
Частота кадров : 23,976 (24000/1001) кадра/сек
Цветовое пространство : YUV
Субдискретизация насыщенности : 4:2:0
Битовая глубина : 8 бит
Тип развёртки : Прогрессивная
Метод сжатия : С потерями
Бит/(Пиксели*Кадры) : 0.217
Размер потока : 459 Мбайт (85%)
Библиотека кодирования : XviD 61
Аудио #1
Идентификатор : 1
Формат : MPEG Audio
Версия формата : Version 1
Профиль формата : Layer 3
Идентификатор кодека : 55
Идентификатор кодека/Подсказка : MP3
Продолжительность : 42 м. 48 с.
Вид битрейта : Постоянный
Битрейт : 128 Кбит/сек
Каналы : 2 канала
Частота : 48,0 КГц
Частота кадров : 41,667 кадра/сек (1152 SPF)
Метод сжатия : С потерями
Размер потока : 39,2 Мбайт (7%)
Выравнивание : Соединение по промежуткам
Продолжительность промежутка : 42 мс. (1,00 видеокадр)
Время предзагрузки промежутка : 504 мс.
Библиотека кодирования : LAME3.98r
Настройки программы : -m s -V 4 -q 2 -lowpass 17 -b 128
Аудио #2
Идентификатор : 2
Формат : MPEG Audio
Версия формата : Version 1
Профиль формата : Layer 3
Настройки формата : Joint stereo / MS Stereo
Идентификатор кодека : 55
Идентификатор кодека/Подсказка : MP3
Продолжительность : 42 м. 48 с.
Вид битрейта : Постоянный
Битрейт : 128 Кбит/сек
Каналы : 2 канала
Частота : 48,0 КГц
Метод сжатия : С потерями
Размер потока : 39,2 Мбайт (7%)
Выравнивание : Соединение по промежуткам
Продолжительность промежутка : 42 мс. (1,00 видеокадр)
Время предзагрузки промежутка : 504 мс.
Библиотека кодирования : LAME3.97
-

Скриншоты

-

Внимание! Раздача ведётся путём добавления новых серий

Внимание! Раздача ведётся путём добавления новых серий; при каждом добавлении создаётся новый торрент. Чтобы начать докачку новой серии, пользователям необходимо сделать следующее:
(1) остановить скачивание,
(2) удалить старый торрент у себя из клиента (старые серии удалять не надо),
(3) скачать новый торрент и запустить его у себя в клиенте вместо старого, при этом указать клиенту путь в старую папку куда и должно происходить скачивание новых серий.
Ваш клиент при этом должен произвести хеширование (проверку) старой папки (если не производит сам - помогите ему сделать это), и будет докачивать только те серии которых у вас ещё нет. Старые серии при этом не удаляются, а продолжают раздаваться!
Eсли вы уже удалили старые серии, то предотвратить повторную закачку старых серий можно, отжав галочку в соответствующих местах при запуске нового торрента. По возможности, желательно не удалять старые серии как можно дольше чтобы релизёр не столько продолжал раздавать старые серии, а смог сконцентрироваться на новых.
-Релиз группы:
[cybertorrent.net].t2540.torrent 
Торрент: Зарегистрирован [ 2019-05-05 16:32 ] · 1A91069156E1724ADD50D09A322425C9A5A42A73

Скачать .torrent

Скачать

51 KB

Статус: проверено
Скачан: 0 раз
Размер: 8,99 GB
terms.php
Показать сообщения:    

Текущее время: 17-Ноя 15:40

Часовой пояс: UTC ± 0



Вы не можете начинать темы
Вы не можете отвечать на сообщения
Вы не можете редактировать свои сообщения
Вы не можете удалять свои сообщения
Вы не можете голосовать в опросах
Вы не можете прикреплять файлы к сообщениям
Вы можете скачивать файлы