Статистика раздачи
Размер:  519 MB   |    Зарегистрирован:  8 месяцев 2 дня   |    Скачан:  0 раз

Полного источника не было: Никогда

 
     
 
 

karlll ®

Пол:
Не указан
Стаж:
8 месяцев 8 дней
Сообщений:
171

Бедный мельничный подмастерье и котенок / Der arme Müllerbursch und das Kätzchen / Poor miller's boy and the kitten
Страна: ГДР
Жанр: сказка
Продолжительность: 0:50:56
Год выпуска: 1971
Перевод: Любительский (двухголосый закадровый), progulkin + даша_ст & Co.
Русские субтитры: нет
Режиссёр: Лотар Барке, Гельмут Барковски / Lothar Barke, Helmut Barkowsky
Описание: Случилось так, что постаревший мельник решил отойти от дел. Один из трех его подмастерьев должен получить мельницу. Но с этим повезет лишь тому из них, чья полученная в награду за честный труд лошадь окажется наилучшей. Двое старших подмастерьев, драчуны и лентяи, бросают в лесу младшего - неунывающего работящего паренька. Неожиданно появляется говорящий котенок, который обещает парню в награду за три выполненных задания лучшую лошадь на свете. Подмастерье соглашается, но не тут-то было: некая демоническая сущность, чаще всего являющаяся в образе старого взъерошенного кота, всячески стремится помешать ему в этом...
По одноименной сказке братьев Гримм.
Семпл: http://multi-up.com/1222468
Качество: DVDRip
Формат: AVI
Видео: Xvid, 576x432, 25 fps, 1222 kbps
Аудио: MP3, 48000 Hz stereo, 192 kbps
Субтитры: отсутствуют

Подробные технические данные

General
Complete name : D:\Werkstatt\Mult_Job\DDR\Kotenok\bursche_kot.avi
Format : AVI
Format/Info : Audio Video Interleave
File size : 519 MiB
Duration : 50 min 55 s
Overall bit rate : 1 424 kb/s
Writing application : VirtualDubMod 1.5.10.3 | www.virtualdub-fr.org || (build 2550/release)
Writing library : VirtualDubMod build 2550/release
Video
ID : 0
Format : MPEG-4 Visual
Format profile : Advanced Simple@L5
Format settings, BVOP : 1
Format settings, QPel : No
Format settings, GMC : No warppoints
Format settings, Matrix : Default (H.263)
Codec ID : XVID
Codec ID/Hint : XviD
Duration : 50 min 55 s
Bit rate : 1 223 kb/s
Width : 576 pixels
Height : 432 pixels
Display aspect ratio : 4:3
Frame rate : 25.000 FPS
Color space : YUV
Chroma subsampling : 4:2:0
Bit depth : 8 bits
Scan type : Progressive
Compression mode : Lossy
Bits/(Pixel*Frame) : 0.197
Stream size : 445 MiB (86%)
Writing library : XviD 1.2.0.dev47 (UTC 2006-11-01)
Audio
ID : 1
Format : MPEG Audio
Format version : Version 1
Format profile : Layer 3
Mode : Joint stereo
Mode extension : MS Stereo
Codec ID : 55
Codec ID/Hint : MP3
Duration : 50 min 55 s
Bit rate mode : Constant
Bit rate : 192 kb/s
Channel(s) : 2 channels
Sampling rate : 48.0 kHz
Compression mode : Lossy
Stream size : 69.9 MiB (13%)
Alignment : Aligned on interleaves
Interleave, duration : 40 ms (1.00 video frame)
Interleave, preload duration : 504 ms
Благодарности Веронике Станиловской за помощь в озвучивании!
[cybertorrent.net].t254.torrent 
Торрент: Зарегистрирован [ 2019-03-18 10:04 ] · 9CF5B61436330DD66B1DDECADB616D0BFCDD446B

Скачать .torrent

Скачать

11 KB

Статус: проверено
Скачан: 0 раз
Размер: 519 MB
terms.php
Профиль [ЛС]
Показать сообщения:    

Текущее время: 21-Ноя 09:22

Часовой пояс: UTC ± 0



Вы не можете начинать темы
Вы не можете отвечать на сообщения
Вы не можете редактировать свои сообщения
Вы не можете удалять свои сообщения
Вы не можете голосовать в опросах
Вы не можете прикреплять файлы к сообщениям
Вы можете скачивать файлы