Статистика раздачи
Размер:  2,18 GB   |    Зарегистрирован:  7 месяцев 10 дней   |    Скачан:  0 раз

Полного источника не было: Никогда

 
     
 
 

serzh ®

Пол:
Не указан
Стаж:
9 месяцев 2 дня
Сообщений:
384

Месть / Revenge
Страна: США, Мексика
Жанр: боевик, криминал
Год выпуска: 1990
Продолжительность: 02:04:01

Перевод: Авторский (одноголосый закадровый) Андрей Гаврилов
Перевод 2: Авторский (одноголосый закадровый) Михаил Иванов
Перевод 3: Авторский (одноголосый закадровый) Юрий Живов
Субтитры: нет
Режиссер: Тони Скотт / Tony Scott
В ролях: Кевин Костнер, Мэделин Стоу, Энтони Куинн, Хоакин Мартинес, Мигель Феррер, Томас Милиан, Джеймс Гэммон, Джон Легуизамо, Джесси Корти
Описание: Джей Кокрэн заканчивает свою карьеру в ВВС США. После своего увольнения из армии Джей собирается нанести визит своему старому другу Тибурону Мендесу, живущему в Мексике. Тибутон является политиком, но бывший летчик уверен, что он как-то связан с мафией. Прибыв в гости к своему другу, мужчина знакомится с женой Мендеса. Мирия влюбляется в гостя, Джей отвечает ей взаимностью. Они скрывают свои чувства от Тибурона, но тому все же становится обо всем известно, а подозрения Джея о связи его друга с мафией оказываются небезосновательны....

Сэмпл: http://multi-up.com/1231231
Качество видео: BDRip (Исходник BDRemux 1080p)
Формат видео: AVI
Видео: XviD 73, 720x304, (2,35:1), 23,976 fps, 1850 Кбит/с, 8 бит, 0.35 bit/pixel
Аудио: Русский (АС3, 2 ch (Front: L R), 48,0 KHz, 224 Kbps) Андрей Гаврилов
Аудио 2: Русский (АС3, 2 ch (Front: L R), 48,0 KHz, 224 Kbps) Михаил Иванов
Аудио 3: Русский (АС3, 2 ch (Front: L R), 48,0 KHz, 192 Kbps) Юрий Живов

MediaInfo

Общее
Полное имя : E:\Месть (боевик, криминал 1990 год).avi
Формат : AVI
Формат/Информация : Audio Video Interleave
Профиль формата : OpenDML
Размер файла : 2,18 Гбайт
Продолжительность : 2 ч. 4 м.
Общий поток : 2514 Кбит/сек
Программа кодирования : VirtualDubMod 1.5.10.2 (build 2540/release)
Библиотека кодирования : VirtualDubMod build 2540/release
Видео
Идентификатор : 0
Формат : MPEG-4 Visual
Профиль формата : Advanced Simple@L5
Параметр BVOP формата : 2
Параметр QPel формата : Нет
Параметр GMC формата : Без точки перехода
Параметр матрицы формата : Выборочная
Идентификатор кодека : XVID
Идентификатор кодека/Подсказка : XviD
Продолжительность : 2 ч. 4 м.
Битрейт : 1850 Кбит/сек
Ширина : 720 пикселей
Высота : 304 пикселя
Соотношение сторон : 2,35:1
Частота кадров : 23,976 (23976/1000) кадра/сек
Цветовое пространство : YUV
Субдискретизация насыщенности : 4:2:0
Битовая глубина : 8 бит
Тип развёртки : Прогрессивная
Метод сжатия : С потерями
Бит/(Пиксели*Кадры) : 0.353
Размер потока : 1,60 Гбайт (74%)
Библиотека кодирования : XviD 73
Аудио #1
Идентификатор : 1
Формат : AC-3
Формат/Информация : Audio Coding 3
Расширение режима : CM (complete main)
Параметр Endianness формата : Big
Идентификатор кодека : 2000
Продолжительность : 2 ч. 4 м.
Вид битрейта : Постоянный
Битрейт : 224 Кбит/сек
Каналы : 2 канала
Расположение каналов : Front: L R
Частота : 48,0 КГц
Частота кадров : 31,250 кадров/сек (1536 spf)
Метод сжатия : С потерями
Размер потока : 199 Мбайт (9%)
Выравнивание : Разделение по промежуткам
Продолжительность промежутка : 42 мс. (1,00 видеокадр)
Время предзагрузки промежутка : 500 мс.
Аудио #2
Идентификатор : 2
Формат : AC-3
Формат/Информация : Audio Coding 3
Расширение режима : CM (complete main)
Параметр Endianness формата : Big
Идентификатор кодека : 2000
Продолжительность : 2 ч. 4 м.
Вид битрейта : Постоянный
Битрейт : 224 Кбит/сек
Каналы : 2 канала
Расположение каналов : Front: L R
Частота : 48,0 КГц
Частота кадров : 31,250 кадров/сек (1536 spf)
Метод сжатия : С потерями
Размер потока : 199 Мбайт (9%)
Выравнивание : Разделение по промежуткам
Продолжительность промежутка : 42 мс. (1,00 видеокадр)
Время предзагрузки промежутка : 500 мс.
Аудио #3
Идентификатор : 3
Формат : AC-3
Формат/Информация : Audio Coding 3
Расширение режима : CM (complete main)
Параметр Endianness формата : Big
Идентификатор кодека : 2000
Продолжительность : 2 ч. 3 м.
Вид битрейта : Постоянный
Битрейт : 192 Кбит/сек
Каналы : 2 канала
Расположение каналов : Front: L R
Частота : 48,0 КГц
Частота кадров : 31,250 кадров/сек (1536 spf)
Метод сжатия : С потерями
Размер потока : 170 Мбайт (8%)
Выравнивание : Разделение по промежуткам
Продолжительность промежутка : 42 мс. (1,00 видеокадр)
Время предзагрузки промежутка : 500 мс.

Скриншот c названием фильма

Скриншоты

[cybertorrent.net].t2532.torrent 
Торрент: Зарегистрирован [ 2019-05-04 16:05 ] · 41946A7D0A2515956D4BDAAC0ED28191CC1E0CC9

Скачать .torrent

Скачать

11 KB

Статус: проверено
Скачан: 0 раз
Размер: 2,18 GB
terms.php
Профиль [ЛС]
Показать сообщения:    

Текущее время: 14-Дек 22:26

Часовой пояс: UTC ± 0



Вы не можете начинать темы
Вы не можете отвечать на сообщения
Вы не можете редактировать свои сообщения
Вы не можете удалять свои сообщения
Вы не можете голосовать в опросах
Вы не можете прикреплять файлы к сообщениям
Вы можете скачивать файлы