Статистика раздачи
Размер:  4,69 GB   |    Зарегистрирован:  6 месяцев 12 дней   |    Скачан:  0 раз
Сидов:  20  [  0 KB/s  ]   Личеров:  4  [  0 KB/s  ]  
 
     
 
 

Гость ®

Пол:
Не указан

Юристы
Год выпуска: 2019
Производство: Varvar studio по заказу телеканала НТВ
Жанр: детектив
Продолжительность: ~00:45:00 серия
Субтитры: нет
Режиссёр: Павел Игнатов
В ролях: Артём Ткаченко, Инна Хотеенкова, Андрей Иванов, Андрей Лукьянов, Татьяна Шкрабак, Владислав Ветров, Арсений Фогелев, Мария Пирогова, Виктория Лукина, Владимир Тебенко, Наталия Колоскова, Олег Метелев, Марина Вайнбранд, Юлия Гребеник, Наталия Колодяжная
Описание: Сюжет истории разворачивается вокруг жизни провинциального адвокатского бюро, где волею судьбы оказался блестящий московский адвокат Артём Сотников. Острый и нестандартный ум, авантюризм, умение пройти по лезвию между законом и беззаконием, моралью и аморальностью — вот то, что отличает героя.
Но, кажется, жарких схваток в зале суда Сотникову недостаточно — он влюбляется в старшего партнера Бюро Алину Кочубей и вступает в противостояние с ее мужем, прокурором города Ворониным.

Реклама: Нет.
Кинопоиск
Все раздачи сериала
Sample
Качество: SATRip - 25Kuzmich
Формат: AVI
Видео кодек: XviD
Аудио кодек: MP3
Видео: 720x400 (1.80:1), 25 fps, XviD ~1650 kbps avg, 0.230 bit/pixel
Аудио: 48 kHz, MPEG Layer 3, 2 ch, ~192.00 kbps avg

Внимание! Раздача ведётся путём добавления новых серий

Раздача ведётся путём добавления новых серий, при каждом добавлении создаётся новый торрент. Чтобы начать докачку новой серии, пользователям необходимо сделать следующее:
- Остановить скачивание.
- Удалить старый торрент у себя из клиента (старые серии удалять не надо).
- Скачать новый торрент и запустить его у себя в клиенте вместо старого, при этом указать клиенту путь в старую папку куда и должно происходить скачивание новых серий.
Ваш клиент при этом должен произвести хеширование (проверку) старой папки (если не производит сам - помогите ему сделать это), и будет докачивать только те серии которых у вас ещё нет. Старые серии при этом не удаляются, а продолжают раздаваться!
Если вы уже удалили старые серии, то предотвратить повторную закачку старых серий можно, отжав галочку в соответствующих местах при запуске нового торрента. По возможности, желательно не удалять старые серии как можно дольше, чтобы релизер не столько продолжал раздавать старые серии, а смог сконцентрироваться на новых.

MI

General
Complete name : D:\Yuristy.2018.XviD.SATRip.25Kuzmich\Yuristy.e03.XviD.SATRip.25Kuzmich.avi
Format : AVI
Format/Info : Audio Video Interleave
File size : 600 MiB
Duration : 45 min 3 s
Overall bit rate : 1 860 kb/s
Writing application : VirtualDubMod 1.5.10.3 | www.virtualdub-fr.org || (build 2550/release)
Writing library : VirtualDubMod build 2550/release
Video
ID : 0
Format : MPEG-4 Visual
Format profile : Advanced Simple@L5
Format settings : BVOP1
Format settings, BVOP : 1
Format settings, QPel : No
Format settings, GMC : No warppoints
Format settings, Matrix : Default (MPEG)
Codec ID : XVID
Codec ID/Hint : XviD
Duration : 45 min 3 s
Bit rate : 1 659 kb/s
Width : 720 pixels
Height : 400 pixels
Display aspect ratio : 16:9
Frame rate : 25.000 FPS
Color space : YUV
Chroma subsampling : 4:2:0
Bit depth : 8 bits
Scan type : Progressive
Compression mode : Lossy
Bits/(Pixel*Frame) : 0.230
Stream size : 535 MiB (89%)
Writing library : XviD 73
Audio
ID : 1
Format : MPEG Audio
Format version : Version 1
Format profile : Layer 3
Format settings : Joint stereo
Codec ID : 55
Codec ID/Hint : MP3
Duration : 45 min 3 s
Bit rate mode : Constant
Bit rate : 192 kb/s
Channel(s) : 2 channels
Sampling rate : 48.0 kHz
Frame rate : 41.667 FPS (1152 SPF)
Compression mode : Lossy
Stream size : 61.9 MiB (10%)
Alignment : Aligned on interleaves
Interleave, duration : 40 ms (1.00 video frame)
Interleave, preload duratio : 504 ms
Writing library : LAME3.99r
Encoding settings : -m j -V 4 -q 2 -lowpass 18.6 -b 192

Скриншоты


[cybertorrent.net].t2525.torrent 
Торрент: Зарегистрирован [ 2019-05-04 16:05 ] · B973167C7B95F2DE1571B95869B921898240737C

Скачать .torrent

Скачать

24 KB

Статус: проверено
Скачан: 0 раз
Размер: 4,69 GB
terms.php
Показать сообщения:    

Текущее время: 17-Ноя 05:36

Часовой пояс: UTC ± 0



Вы не можете начинать темы
Вы не можете отвечать на сообщения
Вы не можете редактировать свои сообщения
Вы не можете удалять свои сообщения
Вы не можете голосовать в опросах
Вы не можете прикреплять файлы к сообщениям
Вы можете скачивать файлы