Статистика раздачи
Размер:  7,82 GB   |    Зарегистрирован:  6 месяцев 10 дней   |    Скачан:  0 раз
Сидов:  4  [  0 KB/s  ]   Личеров:  4  [  0 KB/s  ]  
 
     
 
 

Гость ®

Пол:
Не указан

Юристы
Год выпуска: 2019
Производство: Varvar studio по заказу телеканала НТВ
Жанр: детектив
Продолжительность: ~00:45:00 серия
Субтитры: нет
Режиссёр: Павел Игнатов
В ролях: Артём Ткаченко, Инна Хотеенкова, Андрей Иванов, Андрей Лукьянов, Татьяна Шкрабак, Владислав Ветров, Арсений Фогелев, Мария Пирогова, Виктория Лукина, Владимир Тебенко, Наталия Колоскова, Олег Метелев, Марина Вайнбранд, Юлия Гребеник, Наталия Колодяжная
Описание: Сюжет истории разворачивается вокруг жизни провинциального адвокатского бюро, где волею судьбы оказался блестящий московский адвокат Артём Сотников. Острый и нестандартный ум, авантюризм, умение пройти по лезвию между законом и беззаконием, моралью и аморальностью — вот то, что отличает героя.
Но, кажется, жарких схваток в зале суда Сотникову недостаточно — он влюбляется в старшего партнера Бюро Алину Кочубей и вступает в противостояние с ее мужем, прокурором города Ворониным.

Реклама: Нет.
Кинопоиск
Все раздачи сериала
Sample
Качество: WEBRip 1080p - ExKinoRay
Формат: MKV
Видео кодек: H.264
Аудио кодек: AC3
Видео: MPEG4 AVC Video, H264, 16:9, 1920x1080, 25 fps, ~5600 kbps, 0.109 bit/pixel
Аудио: AC3, 48.0 kHz, 2/0 (L,R) ch, 192 kbps

Внимание! Раздача ведётся путём добавления новых серий

Раздача ведётся путём добавления новых серий, при каждом добавлении создаётся новый торрент. Чтобы начать докачку новой серии, пользователям необходимо сделать следующее:
- Остановить скачивание.
- Удалить старый торрент у себя из клиента (старые серии удалять не надо).
- Скачать новый торрент и запустить его у себя в клиенте вместо старого, при этом указать клиенту путь в старую папку куда и должно происходить скачивание новых серий.
Ваш клиент при этом должен произвести хеширование (проверку) старой папки (если не производит сам - помогите ему сделать это), и будет докачивать только те серии которых у вас ещё нет. Старые серии при этом не удаляются, а продолжают раздаваться!
Если вы уже удалили старые серии, то предотвратить повторную закачку старых серий можно, отжав галочку в соответствующих местах при запуске нового торрента. По возможности, желательно не удалять старые серии как можно дольше, чтобы релизер не столько продолжал раздавать старые серии, а смог сконцентрироваться на новых.

MI

General
Unique ID : 204845223931936153425828455257046879291 (0x9A1BC14C7F951256B0CE9151CF398C3B)
Complete name : D:\Yuristy.2018.WEB-DL.(1080p).ExKinoRay\Yuristy.(01.seriya).2018.WEB-DL.(1080p).ExKinoRay.mkv
Format : Matroska
Format version : Version 4 / Version 2
File size : 1.63 GiB
Duration : 39 min 54 s
Overall bit rate mode : Constant
Overall bit rate : 5 849 kb/s
Encoded date : UTC 2019-05-03 16:05:53
Writing application : mkvmerge v7.8.0 ('River Man') 32bit built on Mar 27 2015 16:18:02
Writing library : libebml v1.3.1 + libmatroska v1.4.2
Video
ID : 1
Format : AVC
Format/Info : Advanced Video Codec
Format profile : High@L4.1
Format settings : 2 Ref Frames
Format settings, CABAC : No
Format settings, ReFrames : 2 frames
Codec ID : V_MPEG4/ISO/AVC
Duration : 39 min 54 s
Bit rate mode : Constant
Bit rate : 5 655 kb/s
Nominal bit rate : 6 000 kb/s
Width : 1 920 pixels
Height : 1 080 pixels
Display aspect ratio : 16:9
Frame rate mode : Constant
Frame rate : 25.000 FPS
Standard : PAL
Color space : YUV
Chroma subsampling : 4:2:0
Bit depth : 8 bits
Scan type : Progressive
Bits/(Pixel*Frame) : 0.109
Stream size : 1.58 GiB (97%)
Default : Yes
Forced : No
Color range : Limited
Color primaries : BT.709
Transfer characteristics : BT.709
Matrix coefficients : BT.709
Audio
ID : 2
Format : AC-3
Format/Info : Audio Coding 3
Codec ID : A_AC3
Duration : 39 min 54 s
Bit rate mode : Constant
Bit rate : 192 kb/s
Channel(s) : 2 channels
Channel positions : Front: L R
Sampling rate : 48.0 kHz
Frame rate : 31.250 FPS (1536 SPF)
Bit depth : 16 bits
Compression mode : Lossy
Stream size : 54.8 MiB (3%)
Language : Russian
Service kind : Complete Main
Default : Yes
Forced : No

Скриншоты


[cybertorrent.net].t2524.torrent 
Торрент: Зарегистрирован [ 2019-05-04 16:05 ] · 3B69CE86A34F9FC913461D89701357971E85E4B8

Скачать .torrent

Скачать

40 KB

Статус: проверено
Скачан: 0 раз
Размер: 7,82 GB
terms.php
Показать сообщения:    

Текущее время: 14-Ноя 22:28

Часовой пояс: UTC ± 0



Вы не можете начинать темы
Вы не можете отвечать на сообщения
Вы не можете редактировать свои сообщения
Вы не можете удалять свои сообщения
Вы не можете голосовать в опросах
Вы не можете прикреплять файлы к сообщениям
Вы можете скачивать файлы