Статистика раздачи
Размер:  1,44 GB   |    Зарегистрирован:  6 месяцев 10 дней   |    Скачан:  0 раз

Полного источника не было: Никогда

 
     
 
 

serzh ®

Пол:
Не указан
Стаж:
8 месяцев 2 дня
Сообщений:
384

Отчаянно ищу Сьюзэн / В отчаянии ищу Сьюзэн / Desperately Seeking Susan
Страна: США
Жанр: Комедия
Год выпуска: 1985
Продолжительность: 01:43:41
Перевод: Одноголосый закадровый
Субтитры: нет
Оригинальная аудиодорожка: английский
Режиссер: Сьюзэн Сейдельман / Susan Seidelman
В ролях: Розанна Аркетт, Мадонна, Айдан Куинн, Марк Блум, Роберт Джой, Лори Меткаф, Анна
Левайн, Уилл Пэттон, Питер Мэлоуни, Стивен Райт
Описание: Роберта Гласс, жена удачливого бизнесмена, устала от беззаботной и богатой жизни.
Однажды, просматривая колонку частных объявлений в газете, она натыкается на короткое
послание — «Отчаянно ищу Сьюзан».
Роберта начинает следить за объявлениями для Сьюзан, время от времени появляющимися в
газете, испытывая нарастающее любопытство и желание увидеть ту девушку, которую кто — то
так «отчаянно» желает встретить. Следующее объявление предлагает Сьюзан встречу и называет
конкретное место. Роберта отправляется к месту свидания. Но любопытство Роберты не
удовлетворено. Она начинает следить за Сьюзан, преследуя её по пятам. Роберте даже удаётся
выкупить куртку девушки, в которой она находит забытый ключ.
Испытывая вкус приключений, Роберта превращается в Сьюзан. Ей невдомёк, что эта весёлая
интрига втягивает её в опасную игру. За настоящей Сьюзан охотится убийца — девчонка
прихватила пару бесценных серёг. И волей — неволей, ей, Роберте, придётся встретиться с
преступником….
Доп. информация: Дорожка с VO синхронизирована и наложена ale_x2008 при помощи Adobe Audition, Sony
Vegas и VirtualDubMod.
За оцифрованную с VHS дорожку благодарим - Glowamy

Релиз
Сэмпл: https://yadi.sk/i/5BjYuacPu_pzjw
Качество видео: HDRip
Формат видео: AVI
Видео: 704x384 (1.83:1), 23.976 fps, XviD build 73 ~1593 kbps avg, 0.25 bit/pixel
Аудио: AC3 Dolby Digital, 48000Hz 2/0 (L,R) ch (mono), 192 kbps avg
Аудио 2: AC3 Dolby Digital, 48000Hz 2/0 (L,R) ch, 192 kbps avg

MediaInfo

Отчаянно ищу Сьюзэн - Desperately Seeking Susan [by ale_x2008].avi
Format : AVI
Format/Info : Audio Video Interleave
File size : 1.44 GiB
Duration : 1 h 43 min
Overall bit rate : 1 992 kb/s
Movie name : Отчаянно ищу Сьюзэн - Desperately Seeking Susan [by ale_x2008]
Director : by ale_X2008
Writing application : VirtualDubMod 1.5.10.2 (build 2540/release)
Copyright : Edich2
Comment : RuTracker.org
Video
ID : 0
Format : MPEG-4 Visual
Format profile : Advanced Simple@L5
Format settings : BVOP1 / Custom Matrix
Format settings, BVOP : 1
Format settings, QPel : No
Format settings, GMC : No warppoints
Format settings, Matrix : Custom
Codec ID : XVID
Codec ID/Hint : XviD
Duration : 1 h 43 min
Bit rate : 1 594 kb/s
Width : 704 pixels
Height : 384 pixels
Display aspect ratio : 1.85:1
Frame rate : 23.976 (24000/1001) FPS
Color space : YUV
Chroma subsampling : 4:2:0
Bit depth : 8 bits
Scan type : Progressive
Compression mode : Lossy
Bits/(Pixel*Frame) : 0.246
Stream size : 1.15 GiB (80%)
Writing library : XviD 73
Audio #1
ID : 1
Format : AC-3
Format/Info : Audio Coding 3
Codec ID : 2000
Duration : 1 h 43 min
Bit rate mode : Constant
Bit rate : 192 kb/s
Channel(s) : 2 channels
Channel positions : Front: L R
Sampling rate : 48.0 kHz
Frame rate : 31.250 FPS (1536 SPF)
Bit depth : 16 bits
Compression mode : Lossy
Stream size : 142 MiB (10%)
Alignment : Split accross interleaves
Interleave, duration : 42 ms (1.00 video frame)
Interleave, preload duratio : 500 ms
Service kind : Complete Main
Audio #2
ID : 2
Format : AC-3
Format/Info : Audio Coding 3
Codec ID : 2000
Duration : 1 h 43 min
Bit rate mode : Constant
Bit rate : 192 kb/s
Channel(s) : 2 channels
Channel positions : Front: L R
Sampling rate : 48.0 kHz
Frame rate : 31.250 FPS (1536 SPF)
Bit depth : 16 bits
Compression mode : Lossy
Stream size : 142 MiB (10%)
Alignment : Split accross interleaves
Interleave, duration : 42 ms (1.00 video frame)
Interleave, preload duratio : 500 ms
Service kind : Complete Main

Скриншоты


[cybertorrent.net].t2523.torrent 
Торрент: Зарегистрирован [ 2019-05-04 16:05 ] · 89F8840DBF059054F1B5FA579537A59D46D2EE12

Скачать .torrent

Скачать

15 KB

Статус: проверено
Скачан: 0 раз
Размер: 1,44 GB
terms.php
Профиль ЛС
Показать сообщения:    

Текущее время: 14-Ноя 16:46

Часовой пояс: UTC ± 0



Вы не можете начинать темы
Вы не можете отвечать на сообщения
Вы не можете редактировать свои сообщения
Вы не можете удалять свои сообщения
Вы не можете голосовать в опросах
Вы не можете прикреплять файлы к сообщениям
Вы можете скачивать файлы