Статистика раздачи
Размер:  1,45 GB   |    Зарегистрирован:  6 месяцев 17 дней   |    Скачан:  0 раз

Полного источника не было: 6 месяцев 5 дней

 
     
 
 

Гость ®

Пол:
Не указан

Чудо доброй ведьмы / The Good Witch's Wonder
Страна: Канада
Жанр: фэнтези, драма, семейный
Год выпуска: 2014
Продолжительность: 01:26:39
Перевод: Профессиональный (многоголосый закадровый) FOX
Субтитры: нет
Оригинальная аудиодорожка: английский
Режиссер: Крэйг Прайс / Craig Pryce
В ролях: Кэтрин Белл
Крис Поттер
Катрин Дишер
Питер МакНейл
Аллан Ройал
Мэттью Найт
Паула Бодро
Ханна Эндикотт-Дуглас
Джесси Бостик
Ной Кэппи
Описание: Иногда «добрая ведьма» Касси Найтингейл ловит себя на мысли, что хотела бы обладать даром предвидения — например, в ситуации, когда ее пасынок Брендон неожиданно решает передвинуть день своей свадьбы, оставив Касси всего пару дней для ее организации. Однако помощь всегда приходит вовремя, и вот, в магазин Касси входит молодая женщина приятной внешности по имени Одри, чтобы предложить ей свои услуги. Обе женщины инстинктивно чувствуют взаимную симпатию, и Касси понимает, что может во всем доверять Одри. Передав управление магазином Одри, Касси получает возможность заняться Брендоном, который боится предстоящего в его жизни события. После разговора по душам Касси обретает уверенность, что согласие на брак Брендон произнесет громко и ясно. Также организация большого городского благотворительного аукциона требует от Касси много времени и сил. Удивительно, что Одри также горит желанием помочь с организацией аукциона, но когда она исчезает вместе со всеми предметами, которые должны были быть выставлены на аукцион, включая достаточно дорогие сувениры Касси, все подозрения падают на Одри, у которой есть что скрывать. Наступает момент проверки на прочность их дружеских связей....
Сэмпл: http://multi-up.com/1231149
Качество видео: WEB-DLRip
Формат видео: AVI
Видео: MPEG4, XviD, 720x400 (16:9), 23.976 fps, 1 749 Kbps (0.253 bit/pixel)
Аудио: AC-3, 48.0 KHz, 2 ch, 192 Kbps, CBR - русский
Аудио 2: AC-3, 48.0 KHz, 6 ch, 448 Kbps, CBR - английский

MediaInfo

Общее
Полное имя : F:\Чудо доброй ведьмы.avi
Формат : AVI
Формат/Информация : Audio Video Interleave
Размер файла : 1,45 Гбайт
Продолжительность : 1 ч. 26 м.
Общий поток : 2403 Кбит/сек
Название фильма : Чудо доброй ведьмы / The Good Witch's Wonder (2014)
Программа кодирования : VirtualDubMod 1.5.10.2 (build 2540/release)
Библиотека кодирования : VirtualDubMod build 2540/release
Авторское право : miha2154
Видео
Идентификатор : 0
Формат : MPEG-4 Visual
Профиль формата : Advanced Simple@L5
Настройки формата : BVOP1 / Custom Matrix
Параметр BVOP формата : 1
Параметр QPel формата : Нет
Параметр GMC формата : Без точки перехода
Параметр матрицы формата : Выборочная
Идентификатор кодека : XVID
Идентификатор кодека/Подсказка : XviD
Продолжительность : 1 ч. 26 м.
Битрейт : 1749 Кбит/сек
Ширина : 720 пикселей
Высота : 400 пикселей
Соотношение сторон : 16:9
Частота кадров : 23,976 (24000/1001) кадра/сек
Цветовое пространство : YUV
Субдискретизация насыщенности : 4:2:0
Битовая глубина : 8 бит
Тип развёртки : Прогрессивная
Метод сжатия : С потерями
Бит/(Пиксели*Кадры) : 0.253
Размер потока : 1,06 Гбайт (73%)
Библиотека кодирования : XviD 65
Аудио #1
Идентификатор : 1
Формат : AC-3
Формат/Информация : Audio Coding 3
Коммерческое название : Dolby Digital
Идентификатор кодека : 2000
Продолжительность : 1 ч. 26 м.
Вид битрейта : Постоянный
Битрейт : 192 Кбит/сек
Каналы : 2 канала
Channel layout : L R
Частота : 48,0 КГц
Частота кадров : 31,250 кадров/сек (1536 SPF)
Битовая глубина : 16 бит
Метод сжатия : С потерями
Размер потока : 119 Мбайт (8%)
Выравнивание : Разделение по промежуткам
Продолжительность промежутка : 42 мс. (1,00 видеокадр)
Время предзагрузки промежутка : 500 мс.
Заголовок : Профессиональный (многоголосый, закадровый) FOX
ServiceKind/String : Complete Main
Аудио #2
Идентификатор : 2
Формат : AC-3
Формат/Информация : Audio Coding 3
Коммерческое название : Dolby Digital
Идентификатор кодека : 2000
Продолжительность : 1 ч. 26 м.
Вид битрейта : Постоянный
Битрейт : 448 Кбит/сек
Каналы : 6 каналов
Channel layout : L R C LFE Ls Rs
Частота : 48,0 КГц
Частота кадров : 31,250 кадров/сек (1536 SPF)
Битовая глубина : 16 бит
Метод сжатия : С потерями
Размер потока : 278 Мбайт (19%)
Выравнивание : Разделение по промежуткам
Продолжительность промежутка : 42 мс. (1,00 видеокадр)
Время предзагрузки промежутка : 500 мс.
Заголовок : Английский
ServiceKind/String : Complete Main

Скриншоты


скрин с названием

[cybertorrent.net].t2521.torrent 
Торрент: Зарегистрирован [ 2019-05-04 16:05 ] · B47981C05BE5221D1BE757D80F531547FACD2008

Скачать .torrent

Скачать

15 KB

Статус: проверено
Скачан: 0 раз
Размер: 1,45 GB
terms.php
Показать сообщения:    

Текущее время: 22-Ноя 00:17

Часовой пояс: UTC ± 0



Вы не можете начинать темы
Вы не можете отвечать на сообщения
Вы не можете редактировать свои сообщения
Вы не можете удалять свои сообщения
Вы не можете голосовать в опросах
Вы не можете прикреплять файлы к сообщениям
Вы можете скачивать файлы