Статистика раздачи
Размер:  1,45 GB   |    Зарегистрирован:  7 месяцев 5 дней   |    Скачан:  0 раз

Полного источника не было: Никогда

 
     
 
 

Гость ®

Пол:
Не указан

Жизнь прекрасна / La vita è bella / Life Is Beautiful / Betrayed
Жанр: Драма
Страна: СССР, Италия
Студия: Мосфильм, Куаттро Кавалли Чинематографика (Quattro Favalli Cinematografica)
Год выпуска: 1979
Продолжительность: 01:34:40
Перевод: Профессиональный (дублированный) – к/с «Мосфильм»
Режиссёр: Григорий Чухрай
В ролях:
Джанкарло Джаннини / Giancarlo Giannini ... Антонио Мурильо, молодой таксист, подпольщик / Antonio Murillo - дублирует Сергей Мартынов
Орнелла Мути / Ornella Muti ... Мария, официантка / Maria - дублирует
Отар Коберидзе ... Альварадо / Alvarado - дублирует Владимир Дружников
Регимантас Адомайтис ... Перез, следователь / Perez - дублирует Вадим Спиридонов
Юозас Будрайтис ... Гомес / Gomes - дублирует Феликс Яворский
Евгений Лебедев ... Ростао, начальник тюрьмы / Rostao
Стефано Мадиа / Stefano Madia ... Пако / Pako - дублирует Александр Сныков
Энцо Фьермонте / Enzo Fiermonte ... Жоао / Zhoao - дублирует Алексей Алексеев
Станислав Чекан ... заключенный / Prisoner
Феликс Яворский ... пастор / Pastor
Николай Дупак ... комиссар / Komissar
Игорь Ясулович ... заключенный / Prisoner
Валентин Кулик ... заключенный / Prisoner
Эдуардас Кунавичюс ... Кордозо / Kordoso
Михаил Ремизов ... Осарио / Osario
Александр Иванов — следователь
Вадим Вильский … надзиратель
Евгений Марков … заключенный
И.Ситников … заключенный
Андрей Данилюк ...
Виталий Венгер ...
Герасим Лисициан
Описание: По рассказу Джованни Фаго (Giovanni Fago).
Действие фильма происходит в неназванной стране, где царит диктатура, жестоко подавляющая любое свободомыслие. Роль бывшего лётчика, а теперь водителя такси Антонио Мурильо, мечтающего летать на собственном самолёте - играет итальянский актер Джанкарло Джаннини. Он создает достоверный, хотя в общем-то традиционный, образ человека, который хочет остаться в стороне от борьбы. Но известно, что в огне брода нет - жизнь в конце концов заставляет сделать выбор и он оказывается вовлечён в политическую борьбу подполья против военной хунты. И Джаннини показывает сложный путь, каким его герой приходит к борьбе с диктатурой. В итоге, после доноса он оказывается в тюрьме и подвергается пыткам. Но жизнь - не только борьба, но и любовь. Дуэт Антонио и его возлюбленной Марии (Орнелла Мути) лиричен и нежен...
Эта картина не стала заметной вехой в творчестве Григория Чухрая, создателя фильмов "Сорок первый", "Баллада о солдате". Но актеры играли хорошо, делая все возможное, чтобы несколько схематичные образы подпольщиков наполнились дыханием жизни. В фильме можно без труда выделить две разные по жанру части. Первая половина фильма сделана в духе итальянского политического кино 70-х и тяготеет к драме, вторая - побег Антонио из крепости - снята в полном соответствии с законами приключенческого жанра.
Дополнительная информация:
Релиз:
Исходник найден в сети.
Автор рипа: pmv
Фильм дублирован на киностудии «Мосфильм» в 1980 году и выпущен в прокат 21 июля 1980 года.
Режиссёр дубляжа: Алексей Алексеев
Звукооператор дубляжа: А.Шаргородский
Роли дублировали: Сергей Мартынов, Владимир Дружников, Вадим Спиридонов, Феликс Яворский, Александр Сныков, Алексей Алексеев
IMDb = 6,8/10 (121) - https://www.imdb.com/title/tt0080101/
Кинопоиск = 6.449 (276) - https://www.kinopoisk.ru/film/23194/
ВНИМАНИЕ!!! РИП ФОРМАТА mkv (кодек H.264) ВОСПРОИЗВОДИТСЯ НЕ НА ВСЕХ БЫТОВЫХ ВИДЕОПЛЕЕРАХ!!!
ПРОСЬБА к СКАЧАВШИМ. НЕ УХОДИТЕ С РАЗДАЧИ, ПОМОГИТЕ ДРУГИМ СКАЧАТЬ!!!
Качество видео: WEB-DLRip-AVC
Формат видео: MKV
Видео: AVC (H264), 1152x648 (16:9), 25 fps, 2000 kbps, 0.107 Bits/Pixel
Аудио: AC3, 44.1 КHz, stereo (2 ch), 192 kbps - советский дубляж

MediaInfo

General
Unique ID : 228651190347406106980320444757373083442 (0xAC049E0FF5024FF5719B626F646BDF32)
Complete name : D:\torrents\Жизнь прекрасна (CCCP+Ita, 1979).mkv
Format : Matroska
Format version : Version 4 / Version 2
File size : 1.45 GiB
Duration : 1 h 34 min
Overall bit rate : 2 195 kb/s
Encoded date : UTC 2019-05-01 00:15:22
Writing application : mkvmerge v33.1.0 ('Primrose') 64-bit
Writing library : libebml v1.3.7 + libmatroska v1.5.0
Video
ID : 1
Format : AVC
Format/Info : Advanced Video Codec
Format profile : High@L4.1
Format settings, CABAC : Yes
Format settings, RefFrames : 11 frames
Codec ID : V_MPEG4/ISO/AVC
Duration : 1 h 34 min
Bit rate : 2 000 kb/s
Width : 1 152 pixels
Height : 648 pixels
Display aspect ratio : 16:9
Frame rate mode : Constant
Frame rate : 25.000 FPS
Color space : YUV
Chroma subsampling : 4:2:0
Bit depth : 8 bits
Scan type : Progressive
Bits/(Pixel*Frame) : 0.107
Stream size : 1.32 GiB (91%)
Writing library : x264 core 146 r2538 121396c
Encoding settings : cabac=1 / ref=11 / deblock=1:0:0 / analyse=0x3:0x133 / me=umh / subme=10 / psy=1 / psy_rd=1.00:0.00 / mixed_ref=1 / me_range=24 / chroma_me=1 / trellis=2 / 8x8dct=1 / cqm=0 / deadzone=21,11 / fast_pskip=1 / chroma_qp_offset=-2 / threads=48 / lookahead_threads=5 / sliced_threads=0 / nr=0 / decimate=1 / interlaced=0 / bluray_compat=0 / constrained_intra=0 / bframes=8 / b_pyramid=2 / b_adapt=2 / b_bias=0 / direct=3 / weightb=1 / open_gop=0 / weightp=2 / keyint=250 / keyint_min=25 / scenecut=40 / intra_refresh=0 / rc_lookahead=60 / rc=2pass / mbtree=1 / bitrate=2000 / ratetol=1.0 / qcomp=0.60 / qpmin=0 / qpmax=69 / qpstep=4 / cplxblur=20.0 / qblur=0.5 / ip_ratio=1.40 / aq=1:1.00
Language : Russian
Default : Yes
Forced : No
Audio
ID : 2
Format : AC-3
Format/Info : Audio Coding 3
Format settings, Endianness : Big
Codec ID : A_AC3
Duration : 1 h 34 min
Bit rate mode : Constant
Bit rate : 192 kb/s
Channel(s) : 2 channels
Channel positions : Front: L R
Sampling rate : 44.1 kHz
Frame rate : 28.711 FPS (1536 SPF)
Bit depth : 16 bits
Compression mode : Lossy
Delay relative to video : 9 ms
Stream size : 130 MiB (9%)
Language : Russian
Service kind : Complete Main
Default : Yes
Forced : No

Скриншот с названием фильма

Сравнение с раздачей Cheef mate от 18-Марта-2012

http://cybertorrent.ru/forum/viewtopic.php?t=3988041
720x576, DVB, ts, 2.21 Gb < > 1152x648, WEBRip, MKV, 1.45 Gb
http://screenshotcomparison.com/comparison/134951
МОИ РАЗДАЧИ НА РУТРЕКЕРЕ: http://cybertorrent.ru/forum/tracker.php?rid=27390064
[cybertorrent.net].t2513.torrent 
Торрент: Зарегистрирован [ 2019-05-04 16:05 ] · 9E77B15E91607F0A9347BCB07739B8E1E5149B77

Скачать .torrent

Скачать

15 KB

Статус: проверено
Скачан: 0 раз
Размер: 1,45 GB
terms.php
Показать сообщения:    

Текущее время: 10-Дек 09:11

Часовой пояс: UTC ± 0



Вы не можете начинать темы
Вы не можете отвечать на сообщения
Вы не можете редактировать свои сообщения
Вы не можете удалять свои сообщения
Вы не можете голосовать в опросах
Вы не можете прикреплять файлы к сообщениям
Вы можете скачивать файлы