Статистика раздачи
Размер:  1,36 GB   |    Зарегистрирован:  6 месяцев 17 дней   |    Скачан:  0 раз

Полного источника не было: Никогда

 
     
 
 

Гость ®

Пол:
Не указан

На берегу мечты- Оригинальное название: На берегу мечты
Год выпуска: 2018
Жанр: драма
Продолжительность: 01:32:59-Субтитры: нет-Режиссёр: Баир Уладаев-В ролях: Баир Уладаев, Анфиса Манхаева, Дарья Трифонова, Алексей Суворов, Вера Урбаева, Григорий Борголов, Баир Ханхаров, Роман Дархаев и др.
Описание: На перепутье времён переплетаются судьбы взрослого и ребенка — такие разные и всё же схожие. Жизнь тяжелораненого молодого ветерана резко меняется с появлением в ней сбежавшей из детдома девочки, у которой есть странная мечта…-Качество: WEB-DLRip
Формат: AVI-Видео: XviD, 1888 Кбит/с, 720x304
Аудио: Русский (AC3, 2 ch, 192 Кбит/с)-Сэмпл: https://yadi.sk/d/ncbac5L2G1OIjg

MediaInfo

General
Complete name : D:\Download\Na.Beregu.Mechty.2018.O.WEB-DLRip.ELEKTRI4KA.UNIONGANG.avi
Format : AVI
Format/Info : Audio Video Interleave
File size : 1.36 GiB
Duration : 1 h 32 min
Overall bit rate : 2 090 kb/s
Movie name : N
Director : E
Writing application : V
Copyright : U
Video
ID : 0
Format : MPEG-4 Visual
Format profile : Advanced Simple@L5
Format settings : BVOP2 / Custom Matrix
Format settings, BVOP : 2
Format settings, QPel : No
Format settings, GMC : No warppoints
Format settings, Matrix : Custom
Codec ID : XVID
Codec ID/Hint : XviD
Duration : 1 h 32 min
Bit rate : 1 888 kb/s
Width : 720 pixels
Height : 304 pixels
Display aspect ratio : 2.35:1
Frame rate : 25.000 FPS
Color space : YUV
Chroma subsampling : 4:2:0
Bit depth : 8 bits
Scan type : Progressive
Compression mode : Lossy
Bits/(Pixel*Frame) : 0.345
Stream size : 1.23 GiB (90%)
Writing library : XviD 65
Audio
ID : 1
Format : AC-3
Format/Info : Audio Coding 3
Codec ID : 2000
Duration : 1 h 32 min
Bit rate mode : Constant
Bit rate : 192 kb/s
Channel(s) : 2 channels
Channel positions : Front: L R
Sampling rate : 48.0 kHz
Frame rate : 31.250 FPS (1536 SPF)
Bit depth : 16 bits
Compression mode : Lossy
Stream size : 128 MiB (9%)
Alignment : Split accross interleaves
Interleave, duration : 40 ms (1.00 video frame)
Interleave, preload duratio : 500 ms
Service kind : Complete Main

Скриншот c названием фильма

Скриншоты

[cybertorrent.net].t2512.torrent 
Торрент: Зарегистрирован [ 2019-05-04 16:05 ] · 11AD06BC87670509774DE4D360EB78E4218E4D5E

Скачать .torrent

Скачать

28 KB

Статус: проверено
Скачан: 0 раз
Размер: 1,36 GB
terms.php
Показать сообщения:    

Текущее время: 22-Ноя 05:29

Часовой пояс: UTC ± 0



Вы не можете начинать темы
Вы не можете отвечать на сообщения
Вы не можете редактировать свои сообщения
Вы не можете удалять свои сообщения
Вы не можете голосовать в опросах
Вы не можете прикреплять файлы к сообщениям
Вы можете скачивать файлы