Статистика раздачи
Размер:  1,46 GB   |    Зарегистрирован:  7 месяцев 6 дней   |    Скачан:  0 раз

Полного источника не было: Никогда

 
     
 
 

Гость ®

Пол:
Не указан

Укрощение свекрови
Жанр: комедия
Год выпуска: 2019
Продолжительность: 01:41:22
Режиссёр: Владимир Басов мл., Ольга Басова
В ролях: Елена Валюшкина, Елизавета Арзамасова, Артём Крылов, Кристина Бабушкина, Владимир Стержаков, Теймураз Тания, Алексей Шевченков, Александра Скачкова, Александр Сотников, Владимир Басов (младший), Алексей Травкин, Сабина Аскарова, Дарья Филиппова, Мария Притыка, Максим Казаков

Описание: Инга и Андрей были бы самой счастливой парой, если бы не одно «но». Мама! А точнее Анна Михайловна — невыносимая свекровь и домашний тиран. Жить в отдельной квартире у молодых супругов никак не получается — мама требует бесконечного внимания и заботы. А поскольку у мамы больное сердце, Андрей потакает всем ее капризам. И конечно, невестку «мама» не переносит. Однажды измученной Инге приходит в голову идея, как раз и навсегда укротить свекровь: ведь все познается в сравнении. И Инга решает… найти себе замену. Причем замену ужасающую — с тремя детьми и бывшим мужем-уголовником. Сыграть новую избранницу Андрея должна будет тетка Инги — Алиса. Однако все идет не по плану…
Кинопоиск
Sample
Качество видео: HDTVRip
Формат видео: AVI
Видео: 720x400 (1.80:1), 25 fps, XviD build 73 ~1862 kbps avg, 0.26 bit/pixel
Аудио: 48 kHz, AC3 Dolby Digital, 2/0 (L,R) ch, ~192 kbps

MediaInfo

General
Complete name : D:\Укрощение свекрови 2019 HDTVRip.avi
Format : AVI
Format/Info : Audio Video Interleave
File size : 1.46 GiB
Duration : 1 h 41 min
Overall bit rate : 2 064 kb/s
Writing application : VirtualDubMod 1.5.10.3 | www.virtualdub-fr.org || (build 2550/release)
Writing library : VirtualDubMod build 2550/release
Video
ID : 0
Format : MPEG-4 Visual
Format profile : Advanced Simple@L5
Format settings : BVOP1
Format settings, BVOP : 1
Format settings, QPel : No
Format settings, GMC : No warppoints
Format settings, Matrix : Default (MPEG)
Codec ID : XVID
Codec ID/Hint : XviD
Duration : 1 h 41 min
Bit rate : 1 863 kb/s
Width : 720 pixels
Height : 400 pixels
Display aspect ratio : 16:9
Frame rate : 25.000 FPS
Color space : YUV
Chroma subsampling : 4:2:0
Bit depth : 8 bits
Scan type : Progressive
Compression mode : Lossy
Bits/(Pixel*Frame) : 0.259
Stream size : 1.32 GiB (90%)
Writing library : XviD 73
Audio
ID : 1
Format : AC-3
Format/Info : Audio Coding 3
Codec ID : 2000
Duration : 1 h 41 min
Bit rate mode : Constant
Bit rate : 192 kb/s
Channel(s) : 2 channels
Channel positions : Front: L R
Sampling rate : 48.0 kHz
Frame rate : 31.250 FPS (1536 SPF)
Bit depth : 16 bits
Compression mode : Lossy
Stream size : 139 MiB (9%)
Alignment : Split accross interleaves
Interleave, duration : 40 ms (1.00 video frame)
Interleave, preload duratio : 500 ms
Service kind : Complete Main

Скриншоты



[cybertorrent.net].t2510.torrent 
Торрент: Зарегистрирован [ 2019-05-04 16:05 ] · 6F416A683EB974E4F4FD7969338E96097AA61FB0

Скачать .torrent

Скачать

15 KB

Статус: проверено
Скачан: 0 раз
Размер: 1,46 GB
terms.php
Показать сообщения:    

Текущее время: 11-Дек 07:08

Часовой пояс: UTC ± 0



Вы не можете начинать темы
Вы не можете отвечать на сообщения
Вы не можете редактировать свои сообщения
Вы не можете удалять свои сообщения
Вы не можете голосовать в опросах
Вы не можете прикреплять файлы к сообщениям
Вы можете скачивать файлы