Статистика раздачи
Размер:  1,47 GB   |    Зарегистрирован:  6 месяцев 8 дней   |    Скачан:  0 раз

Полного источника не было: Никогда

 
     
 
 

Гость ®

Пол:
Не указан

Зеркало для героя
Жанр: фантастика, драма
Год выпуска: 1987
Продолжительность: 2:11:15
Субтитры: русские (телеканал Культура)-Режиссёр: Владимир Хотиненко
В ролях: Сергей Колтаков, Иван Бортник, Борис Галкин, Виктор Смирнов, Сергей Паршин, Александр Песков, Вячеслав Бутусов, Наталья Акимова, Бруно Ляуш, Елена Гольянова, Яков Степанов, Николай Стоцкий, Елена Козлитина, Феликс Степун, Владимир Борисов, Геннадий Овсянников, Людмила Егорова-Описание: Два человека, Сергей Пшеничный и Андрей Немчинов, из конца 80-х годов XX века, неожиданно попадают в 1949 год, в небольшой советский шахтёрский городок. Они оказываются в петле времени, для них снова и снова повторяется один и тот же день: воскресенье, 8 мая. Никто из жителей города не помнит о предыдущих вариантах этого дня. Герои фильма пытаются изменить события, но на следующее утро всё повторяется. Меняются только сами герои и их отношение к происходящему вокруг них-Доп. информация: Звук с телеканала ОТР
Качество лучше чем на DVD
Синхронизирован без перекодирования
Семплы для сравнения:
ОТР
DVD
Сэмпл: 1минута59сек-Качество видео: DVDRip-AVC (спасибо Aiva!)
Формат видео: MKV
Видео: AVC, 700х518, 4:3, 25,000 кадров/сек, 1413 Кбит/сек
Аудио: MP2, 48,0 КГц, 192 Кбит/сек, 2 канала
Формат субтитров: softsub (SRT)

Сравнения

ВТБ---Этот файл
6 скринов-DVD---Этот файл
4 скрина

MediaInfo

x264.log

x264.exe: --crf 20.0 --preset veryslow --profile high --level 4.1 --aq-mode 3 --merange 42 --bframes 16 --no-fast-pskip --no-dct-decimate --subme 11 --no-mbtree --min-keyint 25 --sar 1:1
avs [info]: 700x518p 1:1 @ 25/1 fps (cfr)
x264 [info]: using SAR=1/1
x264 [info]: using cpu capabilities: MMX2 SSE2Fast SSSE3 SSE4.1 Cache64
x264 [info]: profile Progressive High, level 4.1, 4:2:0, 8-bit
x264 [info]: frame I:1016 Avg QP:18.44 size: 30954
x264 [info]: frame P:40236 Avg QP:19.87 size: 15479
x264 [info]: frame B:155629 Avg QP:21.56 size: 4731
x264 [info]: consecutive B-frames: 0.8% 0.7% 7.2% 18.5% 19.9% 50.8% 1.6% 0.4% 0.1% 0.0% 0.0% 0.0% 0.0% 0.0% 0.0% 0.0% 0.0%
x264 [info]: mb I I16..4: 3.9% 85.3% 10.9%
x264 [info]: mb P I16..4: 0.4% 9.1% 0.6% P16..4: 39.6% 39.6% 9.6% 0.4% 0.0% skip: 0.6%
x264 [info]: mb B I16..4: 0.0% 0.6% 0.0% B16..8: 39.8% 18.3% 1.9% direct: 6.8% skip:32.6% L0:44.0% L1:47.7% BI: 8.3%
x264 [info]: 8x8 transform intra:88.9% inter:66.9%
x264 [info]: direct mvs spatial:100.0% temporal:0.0%
x264 [info]: coded y,uvDC,uvAC intra: 92.7% 85.4% 50.8% inter: 29.5% 27.6% 7.6%
x264 [info]: i16 v,h,dc,p: 16% 34% 2% 48%
x264 [info]: i8 v,h,dc,ddl,ddr,vr,hd,vl,hu: 9% 6% 4% 11% 15% 16% 14% 14% 12%
x264 [info]: i4 v,h,dc,ddl,ddr,vr,hd,vl,hu: 13% 9% 2% 9% 14% 16% 13% 13% 12%
x264 [info]: i8c dc,h,v,p: 40% 24% 19% 17%
x264 [info]: Weighted P-Frames: Y:15.6% UV:7.4%
x264 [info]: ref P L0: 41.2% 10.6% 15.8% 6.0% 5.5% 3.9% 3.8% 2.0% 2.0% 1.6% 1.7% 1.4% 1.4% 1.2% 1.2% 0.8%
x264 [info]: ref B L0: 86.4% 5.7% 2.2% 1.2% 0.9% 0.8% 0.6% 0.4% 0.3% 0.3% 0.3% 0.3% 0.2% 0.2% 0.1%
x264 [info]: ref B L1: 98.2% 1.8%
x264 [info]: kb/s:1412.56
encoded 196881 frames, 4.56 fps, 1412.56 kb/s
Общее
Уникальный идентификатор : 219316061971193728100628702125979466592 (0xA4FEBCB2D151CE62C7002C22BB99FB60)
Полное имя : Зеркало для героя.1987.DVDRip.mkv
Формат : Matroska
Версия формата : Version 4
Размер файла : 1,47 Гбайт
Продолжительность : 2 ч. 11 м.
Общий поток : 1607 Кбит/сек
Название фильма : Зеркало для героя / 1987 / DVDRip
Дата кодирования : UTC 2019-05-02 04:48:45
Программа кодирования : mkvmerge v33.1.0 ('Primrose') 32-bit
Библиотека кодирования : libebml v1.3.7 + libmatroska v1.5.0
Видео
Идентификатор : 1
Формат : AVC
Формат/Информация : Advanced Video Codec
Профиль формата : High@L4.1
Настройки формата : CABAC / 16 Ref Frames
Параметр CABAC формата : Да
Параметр RefFrames формата : 16 кадров
Идентификатор кодека : V_MPEG4/ISO/AVC
Продолжительность : 2 ч. 11 м.
Битрейт : 1413 Кбит/сек
Ширина : 700 пикселей
Высота : 518 пикселей
Соотношение сторон : 4:3
Режим частоты кадров : Постоянный
Частота кадров : 25,000 кадров/сек
Цветовое пространство : YUV
Субдискретизация насыщенности : 4:2:0
Битовая глубина : 8 бит
Тип развёртки : Прогрессивная
Бит/(Пиксели*Кадры) : 0.156
Размер потока : 1,30 Гбайт (88%)
Заголовок : Зеркало для героя / 1987 / DVDRip
Библиотека кодирования : x264 core 157 r2969 d4099dd
Настройки программы : cabac=1 / ref=16 / deblock=1:0:0 / analyse=0x3:0x133 / me=umh / subme=11 / psy=1 / psy_rd=1.00:0.00 / mixed_ref=1 / me_range=42 / chroma_me=1 / trellis=2 / 8x8dct=1 / cqm=0 / deadzone=21,11 / fast_pskip=0 / chroma_qp_offset=-2 / threads=6 / lookahead_threads=1 / sliced_threads=0 / nr=0 / decimate=0 / interlaced=0 / bluray_compat=0 / constrained_intra=0 / bframes=16 / b_pyramid=2 / b_adapt=2 / b_bias=0 / direct=3 / weightb=1 / open_gop=0 / weightp=2 / keyint=250 / keyint_min=25 / scenecut=40 / intra_refresh=0 / rc=crf / mbtree=0 / crf=20.0 / qcomp=0.60 / qpmin=0 / qpmax=69 / qpstep=4 / ip_ratio=1.40 / pb_ratio=1.30 / aq=3:1.00
Язык : Russian
Default : Да
Forced : Нет
Аудио
Идентификатор : 2
Формат : MPEG Audio
Версия формата : Version 1
Профиль формата : Layer 2
Идентификатор кодека : A_MPEG/L2
Идентификатор кодека/Подсказка : MP2
Продолжительность : 2 ч. 11 м.
Вид битрейта : Постоянный
Битрейт : 192 Кбит/сек
Каналы : 2 канала
Частота : 48,0 КГц
Частота кадров : 41,667 кадра/сек (1152 SPF)
Метод сжатия : С потерями
Размер потока : 180 Мбайт (12%)
Заголовок : телеканал ОТР
Язык : Russian
Default : Да
Forced : Нет
Текст
Идентификатор : 3
Формат : UTF-8
Идентификатор кодека : S_TEXT/UTF8
Идентификатор кодека/Информация : UTF-8 Plain Text
Продолжительность : 2 ч. 10 м.
Битрейт : 94 бит/сек
ElementCount : 1462
Размер потока : 89,5 Кбайт (0%)
Заголовок : телеканал Культура
Язык : Russian
Default : Нет
Forced : Нет
Меню
00:00:00.000 : en:Chapter 01
00:16:47.000 : en:Chapter 02
00:29:19.560 : en:Chapter 03
00:44:16.560 : en:Chapter 04
01:00:40.280 : en:Chapter 05
01:14:12.240 : en:Chapter 06
01:30:50.280 : en:Chapter 07
01:44:59.560 : en:Chapter 08
02:00:31.640 : en:Chapter 09

Скриншоты



[cybertorrent.net].t2508.torrent 
Торрент: Зарегистрирован [ 2019-05-04 16:05 ] · FF47931BCEBE3056A3037EA2A1BF431D978CFDD2

Скачать .torrent

Скачать

15 KB

Статус: проверено
Скачан: 0 раз
Размер: 1,47 GB
terms.php
Показать сообщения:    

Текущее время: 13-Ноя 00:03

Часовой пояс: UTC ± 0



Вы не можете начинать темы
Вы не можете отвечать на сообщения
Вы не можете редактировать свои сообщения
Вы не можете удалять свои сообщения
Вы не можете голосовать в опросах
Вы не можете прикреплять файлы к сообщениям
Вы можете скачивать файлы