Статистика раздачи
Размер:  1,37 GB   |    Зарегистрирован:  6 месяцев 14 дней   |    Скачан:  0 раз
Сидов:  498  [  0 KB/s  ]   Личеров:  15  [  0 KB/s  ]  
 
     
 
 

солнышко ®

Пол:
Не указан
Стаж:
8 месяцев 5 дней
Сообщений:
565

Великолепная / Brillantissime
Страна: Франция, Бельгия
Жанр: комедия, мелодрама
Год выпуска: 2018
Продолжительность: 01:26:19
Перевод: Профессиональный (дублированный) Кинопремьера
Субтитры: нет
Оригинальная аудиодорожка: французский
Режиссер: Мишель Ларок / Michèle Laroque
В ролях: Мишель Ларок
Кад Мерад
Франсуаза Фабиан
Жерар Дармон
Росси де Пальма
Паскаль Элбе
Ориан Дешам
Артур Жакин
Ванта Талисман
Марта Вильялонга
Описание: На Лазурном берегу, в городе Ницца жила-была Анжела, и были у нее огромная квартира, куча роскошных нарядов, красавец-муж, экстравагантная подруга, энергичная мама, своенравная дочь, а также очень преданный и милый психоаналитик. И так она жила, горя не знала, пока однажды под Рождество муж не сделал ей неожиданный «подарок» — взял да и ушел из семьи. Кто виноват? Что делать? С чего начинать новую жизнь?.. Оплакивать долю несчастной разведёнки? Ну уж нет! Только радоваться вновь обретенной свободе! Ведь жизнь прекрасна, и в ней случаются чудеса…
Сэмпл: http://multi-up.com/1231154
Качество видео: WEB-DLRip
Формат видео: AVI
Видео: MPEG4, XviD, 720x304 (2.35:1), 25.000 fps, 1 685 Kbps (0.308 bit/pixel)
Аудио: AC-3, 48.0 KHz, 2 ch, 192 Kbps, CBR - русский
Аудио 2: AC-3, 48.0 KHz, 6 ch, 384 Kbps, CBR - французский

MediaInfo

Общее
Полное имя : F:\Великолепная.avi
Формат : AVI
Формат/Информация : Audio Video Interleave
Размер файла : 1,37 Гбайт
Продолжительность : 1 ч. 26 м.
Общий поток : 2276 Кбит/сек
Название фильма : Великолепная / Brillantissime (2018)
Программа кодирования : VirtualDubMod 1.5.10.2 (build 2540/release)
Библиотека кодирования : VirtualDubMod build 2540/release
Авторское право : miha2154
Видео
Идентификатор : 0
Формат : MPEG-4 Visual
Профиль формата : Advanced Simple@L5
Настройки формата : BVOP1 / Custom Matrix
Параметр BVOP формата : 1
Параметр QPel формата : Нет
Параметр GMC формата : Без точки перехода
Параметр матрицы формата : Выборочная
Идентификатор кодека : XVID
Идентификатор кодека/Подсказка : XviD
Продолжительность : 1 ч. 26 м.
Битрейт : 1685 Кбит/сек
Ширина : 720 пикселей
Высота : 304 пикселя
Соотношение сторон : 2,35:1
Частота кадров : 25,000 кадров/сек
Цветовое пространство : YUV
Субдискретизация насыщенности : 4:2:0
Битовая глубина : 8 бит
Тип развёртки : Прогрессивная
Метод сжатия : С потерями
Бит/(Пиксели*Кадры) : 0.308
Размер потока : 1,02 Гбайт (74%)
Библиотека кодирования : XviD 65
Аудио #1
Идентификатор : 1
Формат : AC-3
Формат/Информация : Audio Coding 3
Коммерческое название : Dolby Digital
Идентификатор кодека : 2000
Продолжительность : 1 ч. 26 м.
Вид битрейта : Постоянный
Битрейт : 192 Кбит/сек
Каналы : 2 канала
Channel layout : L R
Частота : 48,0 КГц
Частота кадров : 31,250 кадров/сек (1536 SPF)
Битовая глубина : 16 бит
Метод сжатия : С потерями
Размер потока : 119 Мбайт (8%)
Выравнивание : Разделение по промежуткам
Продолжительность промежутка : 40 мс. (1,00 видеокадр)
Время предзагрузки промежутка : 500 мс.
Заголовок : Профессиональный (полное дублирование) Кинопремьера
ServiceKind/String : Complete Main
Аудио #2
Идентификатор : 2
Формат : AC-3
Формат/Информация : Audio Coding 3
Коммерческое название : Dolby Digital
Идентификатор кодека : 2000
Продолжительность : 1 ч. 26 м.
Вид битрейта : Постоянный
Битрейт : 384 Кбит/сек
Каналы : 6 каналов
Channel layout : L R C LFE Ls Rs
Частота : 48,0 КГц
Частота кадров : 31,250 кадров/сек (1536 SPF)
Битовая глубина : 16 бит
Метод сжатия : С потерями
Размер потока : 237 Мбайт (17%)
Выравнивание : Разделение по промежуткам
Продолжительность промежутка : 40 мс. (1,00 видеокадр)
Время предзагрузки промежутка : 500 мс.
Заголовок : Французский
ServiceKind/String : Complete Main

Скриншот c названием фильма

Скриншоты


[cybertorrent.net].t2503.torrent 
Торрент: Зарегистрирован [ 2019-05-03 15:36 ] · 99256217EE6E40B91919E17C1631E823D6F88042

Скачать .torrent

Скачать

14 KB

Статус: проверено
Скачан: 0 раз
Размер: 1,37 GB
terms.php
Профиль ЛС
Показать сообщения:    

Текущее время: 17-Ноя 18:04

Часовой пояс: UTC ± 0



Вы не можете начинать темы
Вы не можете отвечать на сообщения
Вы не можете редактировать свои сообщения
Вы не можете удалять свои сообщения
Вы не можете голосовать в опросах
Вы не можете прикреплять файлы к сообщениям
Вы можете скачивать файлы