Статистика раздачи
Размер:  980 MB   |    Зарегистрирован:  6 месяцев 11 дней   |    Скачан:  0 раз

Полного источника не было: Никогда

 
     
 
 

солнышко ®

Пол:
Не указан
Стаж:
8 месяцев 2 дня
Сообщений:
565

Джонсы в отключке
The Joneses Unplugged- Страна: США
Жанр: комедия
Год выпуска: 2017
Продолжительность: 01:23:03
Перевод: Профессиональный (многоголосый закадровый) Компания "SDI Media Россия"
Субтитры: нет
Оригинальная аудиодорожка: английский
Режиссер: Брэдфорд Мэй / Bradford May
В ролях: Миша Бартон / Mischa Barton (Rebecca Jones), Шон Фэрис / Sean Faris (Matthew Jones), Б.Дж. Митчелл / BJ Mitchell (Jackson), Кристэл М. Харрис / Krystal M. Harris (Amanda Rice), Алисса Диас / Alyssa Diaz (Peggy Redmond), Хантер Пэйтон / Hunter Payton (Patrick Douglas)
Описание: Новобрачные Мэтью и Ребекка понимают, что их отношения претерпевают серьёзный кризис, когда из-за своей одержимости современными технологиями и социальными сетями они теряют дом мечты. Однако после внезапного отключения электроэнергии по всему городу пара вынуждена обходиться без своих электронных устройств. В результате молодые люди переживают лучшую ночь, которая когда либо у них была.
Доп. информация: Intelsat 15 (85.0°E) Filmbox DVB-S
Номинация на лучшего молодого актера в телефильме (Hunter Payton) Young Entertainer Awards 2018.
Качество видео: DVB-AVC
Формат видео: MKV
Видео: AVC (H.264), 720x576@1024x576 (16:9), 25 fps, ~1360 kbps avg, 0.131 bit/pixel
Аудио 1: MPEG Audio 2, 2 ch, 48 kHz, 128 kbps - русский
Аудио 2: MPEG Audio 2, 2 ch, 48 kHz, 128 kbps - английский

MediaInfo

General
Unique ID : 192804107251117442015076530335351066893 (0x910CB869391EF873413AACBB3940510D)
Complete name : [apreder]The_Joneses_Unplugged(2017)DVB.mkv
Format : Matroska
Format version : Version 2
File size : 980 MiB
Duration : 1 h 23 min
Overall bit rate : 1 649 kb/s
Movie name : The Joneses Unplugged
Released date : 2018-01-12
Encoded date : UTC 2019-05-03 14:07:39
Writing application : mkvmerge v33.1.0 ('Primrose') 64-bit
Writing library : libebml v1.3.7 + libmatroska v1.5.0
Cover : Yes
Attachments : cover.jpg / small_cover.jpg
ACTOR : Mischa Barton, Sean Faris, BJ Mitchell
DIRECTOR : Bradford May
GENRE : Comedy
IMDB : tt5779828
KEYWORDS : rutracker.org
LAW_RATING : 16+
Video
ID : 1
Format : AVC
Format/Info : Advanced Video Codec
Format profile : Main@L3
Format settings : CABAC / 3 Ref Frames
Format settings, CABAC : Yes
Format settings, Reference frames : 3 frames
Codec ID : V_MPEG4/ISO/AVC
Duration : 1 h 23 min
Bit rate : 1 360 kb/s
Width : 720 pixels
Height : 576 pixels
Display aspect ratio : 16:9
Original display aspect ratio : 16:9
Frame rate mode : Constant
Frame rate : 25.000 FPS
Standard : Component
Color space : YUV
Chroma subsampling : 4:2:0
Bit depth : 8 bits
Scan type : Interlaced
Scan type, store method : Separated fields
Scan order : Top Field First
Bits/(Pixel*Frame) : 0.131
Stream size : 808 MiB (82%)
Default : Yes
Forced : No
Color range : Limited
Color primaries : BT.601 PAL
Transfer characteristics : BT.470 System B/G
Matrix coefficients : BT.470 System B/G
Audio #1
ID : 2
Format : MPEG Audio
Format version : Version 1
Format profile : Layer 2
Codec ID : A_MPEG/L2
Codec ID/Hint : MP2
Duration : 1 h 23 min
Bit rate mode : Constant
Bit rate : 128 kb/s
Channel(s) : 2 channels
Sampling rate : 48.0 kHz
Compression mode : Lossy
Stream size : 76.0 MiB (8%)
Language : Russian
Default : Yes
Forced : No
Audio #2
ID : 3
Format : MPEG Audio
Format version : Version 1
Format profile : Layer 2
Codec ID : A_MPEG/L2
Codec ID/Hint : MP2
Duration : 1 h 23 min
Bit rate mode : Constant
Bit rate : 128 kb/s
Channel(s) : 2 channels
Sampling rate : 48.0 kHz
Compression mode : Lossy
Stream size : 76.0 MiB (8%)
Language : English
Default : No
Forced : No

Скриншот c названием фильма

Скриншоты


Резервные скриншоты


- [4'571]
[cybertorrent.net].t2502.torrent 
Торрент: Зарегистрирован [ 2019-05-03 15:36 ] · AF204549C480BF8CDA47EA489E76E845910898EF

Скачать .torrent

Скачать

10 KB

Статус: проверено
Скачан: 0 раз
Размер: 980 MB
terms.php
Профиль ЛС
Показать сообщения:    

Текущее время: 14-Ноя 16:48

Часовой пояс: UTC ± 0



Вы не можете начинать темы
Вы не можете отвечать на сообщения
Вы не можете редактировать свои сообщения
Вы не можете удалять свои сообщения
Вы не можете голосовать в опросах
Вы не можете прикреплять файлы к сообщениям
Вы можете скачивать файлы