Статистика раздачи
Размер:  170 MB   |    Зарегистрирован:  7 месяцев 26 дней   |    Скачан:  0 раз

Полного источника не было: Никогда

 
     
 
 

Гость ®

Пол:
Не указан

Три танкиста Жанр: мультфильм
Студия: Казахфильм
Продолжительность: 00:09:50
Год выпуска: 1972-Режиссёр: Виктор Чугунов-Описание: О мужестве и находчивости трех танкистов разных национальностей, которые, проявив сплоченность, защитили Девочку от Волка.-Качество: DVB [Ел Арна] (эфир 02.02.2019)
Формат: TS
Видео: AVC, 720x576 (16:9) @ 1047x576, 25 fps, ~2100 kbps, 0.203 bit/pixel
Аудио: [RUS] MP2, 48 kHz, 2 ch, 192 kbps

Mediainfo

General
ID : 1 (0x1)
Complete name : H:\Раздачи\Три танкиста (1972) [DVB].ts
Format : MPEG-TS
File size : 170 MiB
Duration : 9 min 50 s
Overall bit rate mode : Variable
Overall bit rate : 2 413 kb/s
Video
ID : 67 (0x43)
Menu ID : 1 (0x1)
Format : AVC
Format/Info : Advanced Video Codec
Format profile : High@L3
Format settings : CABAC / 3 Ref Frames
Format settings, CABAC : Yes
Format settings, ReFrames : 3 frames
Codec ID : 27
Duration : 9 min 50 s
Bit rate : 2 100 kb/s
Width : 720 pixels
Height : 576 pixels
Display aspect ratio : 16:9
Frame rate : 25.000 FPS
Standard : Component
Color space : YUV
Chroma subsampling : 4:2:0
Bit depth : 8 bits
Scan type : Interlaced
Scan type, store method : Separated fields
Scan order : Top Field First
Bits/(Pixel*Frame) : 0.203
Stream size : 148 MiB (87%)
Color range : Limited
Color primaries : BT.601 PAL
Transfer characteristics : BT.470 System B/G
Matrix coefficients : BT.470 System B/G
Audio
ID : 68 (0x44)
Menu ID : 1 (0x1)
Format : MPEG Audio
Format version : Version 1
Format profile : Layer 2
Codec ID : 3
Duration : 9 min 50 s
Bit rate mode : Constant
Bit rate : 192 kb/s
Channel(s) : 2 channels
Sampling rate : 48.0 kHz
Frame rate : 41.667 FPS (1152 SPF)
Compression mode : Lossy
Delay relative to video : -80 ms
Stream size : 13.5 MiB (8%)
Language : English

Скриншоты

[cybertorrent.net].t250.torrent 
Торрент: Зарегистрирован [ 2019-03-18 10:04 ] · ACBD07C57A02DFB0F419B26B54F18C57DF86F4C6

Скачать .torrent

Скачать

14 KB

Статус: проверено
Скачан: 0 раз
Размер: 170 MB
terms.php
Показать сообщения:    

Текущее время: 13-Ноя 17:54

Часовой пояс: UTC ± 0



Вы не можете начинать темы
Вы не можете отвечать на сообщения
Вы не можете редактировать свои сообщения
Вы не можете удалять свои сообщения
Вы не можете голосовать в опросах
Вы не можете прикреплять файлы к сообщениям
Вы можете скачивать файлы