Статистика раздачи
Размер:  597 MB   |    Зарегистрирован:  6 месяцев 11 дней   |    Скачан:  0 раз

Полного источника не было: Никогда

 
     
 
 

Гость ®

Пол:
Не указан

Сотня / The 100 Год выпуска: 2019
Страна: США
Жанр: фэнтези, боевик, драма, мелодрама, приключения.
Продолжительность: ~00:42:00
Перевод: Профессиональный (многоголосый закадровый) AlexFilm
Режиссёр: Дин Уайт, П.Дж. Пеше, Эд Фрэйман
В ролях: Элайза Тейлор, Мари Авгеропулос, Боб Морли, Генри Йен Кьюсик, Исайя Вашингтон, Пейдж Турко, Рики Уиттл, Ричард Хэрмон, Линдси Морган, Девон Бостик
Описание: После ядерной войны прошло 97 лет. Остатки человечества, укрывшиеся на космической станции «Ковчег», страдают от нехватки ресурсов, необходимых для дальнейшего выживания. Правительство исчерпало все меры, включая жесткое ограничение рождаемости, но ситуация продолжает ухудшаться.
Остается единственный выход — попробовать вернуться на Землю. Чтобы узнать, пригодна ли для жизни покинутая давным-давно планета, правительство отправляет туда сотню молодых правонарушителей, в числе которых оказываются дети высокопоставленных чиновников и других известных на «Ковчеге» людей. Теперь судьба всего человечества зависит от этой группы «изгнанников»...

Исходник: The.100.S06E01.Sanctum.1080p.AMZN.WEB-DL.DDP5.1.x264-CasStudio
Качество: WEB-DLRip
Формат: AVI
Видео: XviD, 720x400, 23,976 fps, ~ 1600 kbps
Аудио 1: 48 kHz, AC3 2 ch, ~192 kbps|AlexFilm|
Аудио 2: 48 kHz, AC3 2 ch, ~192 kbps
Субтитры: Английские
Реклама: Отсутствует
Предыдущие и альтернативные раздачи

MediaInfo

Format : AVI
Format/Info : Audio Video Interleave
File size : 597 MiB
Duration : 41mn 45s
Overall bit rate : 1 998 Kbps
Movie name : Сотня 6х01: Святилище
Director : Бёдвар (WEB-DLRip 400p)
Writing application : VirtualDubModRus 1.5.10.2 (build 2542/release)
Comment : 03.04.2019
Video
ID : 0
Format : MPEG-4 Visual
Format profile : Advanced Simple@L5
Format settings, BVOP : 1
Format settings, QPel : No
Format settings, GMC : No warppoints
Format settings, Matrix : Default (MPEG)
Codec ID : XVID
Codec ID/Hint : XviD
Duration : 41mn 45s
Bit rate : 1 600 Kbps
Width : 720 pixels
Height : 400 pixels
Display aspect ratio : 16:9
Frame rate : 23.976 (24000/1001) fps
Color space : YUV
Chroma subsampling : 4:2:0
Bit depth : 8 bits
Scan type : Progressive
Compression mode : Lossy
Bits/(Pixel*Frame) : 0.232
Stream size : 478 MiB (80%)
Writing library : XviD 67
Audio #1
ID : 1
Format : AC-3
Format/Info : Audio Coding 3
Mode extension : CM (complete main)
Format settings, Endianness : Big
Codec ID : 2000
Duration : 41mn 45s
Bit rate mode : Constant
Bit rate : 192 Kbps
Channel(s) : 2 channels
Channel positions : Front: L R
Sampling rate : 48.0 KHz
Frame rate : 31.250 fps (1536 spf)
Compression mode : Lossy
Stream size : 57.3 MiB (10%)
Alignment : Split accross interleaves
Interleave, duration : 42 ms (1.00 video frame)
Interleave, preload duratio : 500 ms
Audio #2
ID : 2
Format : AC-3
Format/Info : Audio Coding 3
Mode extension : CM (complete main)
Format settings, Endianness : Big
Codec ID : 2000
Duration : 41mn 45s
Bit rate mode : Constant
Bit rate : 192 Kbps
Channel(s) : 2 channels
Channel positions : Front: L R
Sampling rate : 48.0 KHz
Frame rate : 31.250 fps (1536 spf)
Compression mode : Lossy
Stream size : 57.3 MiB (10%)
Alignment : Split accross interleaves
Interleave, duration : 42 ms (1.00 video frame)
Interleave, preload duratio : 500 ms

Скриншоты

Внимание! Раздача ведётся путём добавления новых серий

Внимание! Раздача ведётся путём добавления новых серий; при каждом добавлении создаётся новый торрент. Чтобы начать докачку новой серии,пользователям необходимо
сделать следующее:
(1) остановить скачивание,
(2) удалить старый торрент у себя из клиента (старые серии удалять не надо),
(3) скачать новый торрент и запустить его у себя в клиенте вместо старого, при этом указать клиенту путь в старую папку куда и должнопроисходить скачивание новых серий.
Ваш клиент при этом должен произвести хеширование (проверку) старой папки (если не производит сам - помогите ему сделать это), и будет докачивать только те серии
которых у вас ещё нет. Старые серии при этом не удаляются, а продолжают раздаваться!
Eсли вы уже удалили старые серии, то предотвратить повторную закачку старых серий можно, отжав галочку в соответствующих местах при запуске нового торрента.
По возможности, желательно не удалять старые серии как можно дольше чтобы релизёр не столько продолжал раздавать старые серии, а смог сконцентрироваться на новых.
Релиз группы:
[cybertorrent.net].t2497.torrent 
Торрент: Зарегистрирован [ 2019-05-03 15:36 ] · 8E7E7CA76C254FE9A1EF0387E935A2A25358174A

Скачать .torrent

Скачать

12 KB

Статус: проверено
Скачан: 0 раз
Размер: 597 MB
terms.php
Показать сообщения:    

Текущее время: 14-Ноя 16:47

Часовой пояс: UTC ± 0



Вы не можете начинать темы
Вы не можете отвечать на сообщения
Вы не можете редактировать свои сообщения
Вы не можете удалять свои сообщения
Вы не можете голосовать в опросах
Вы не можете прикреплять файлы к сообщениям
Вы можете скачивать файлы