Статистика раздачи
Размер:  745 MB   |    Зарегистрирован:  6 месяцев 10 дней   |    Скачан:  0 раз
Сидов:  5  [  0 KB/s  ]   Личеров:  2  [  0 KB/s  ]  
 
     
 
 

солнышко ®

Пол:
Не указан
Стаж:
8 месяцев 1 день
Сообщений:
565

-Проклятый дом / The Witch in the Window-«За некоторые дела лучше не браться»- -Страна: США
Жанр: драма, ужасы
Год выпуска: 2018
Продолжительность: 01:17:10-Перевод: Любительский (многоголосый закадровый) HDRezka Studio
Субтитры: нет
Оригинальная аудиодорожка: нет-Режиссер: Энди Миттон / Andy Mitton-В ролях: Алекс Дрэйпер, Чарльз Эверетт Такер, Кэрол Станционе, Грег Нафтон, Ария Барейкис, Зак Йетте, Молли Слотауэр, Фрэнки Данливи, Аделаида Фиттон, Наоми Фиттон-Описание: Фильм рассказывает историю человека по имени Саймон и его двенадцатилетнего сына Финна. Вместе они отправляются в штат Вермонт, где планируют отремонтировать старый дом, в котором вот уже многие годы никто не живет. Во время работ им приходится столкнуться с духом умершей женщины Лидии, когда-то владевшей этим местом. Сосед Саймона говорил ему, что при жизни Лидию считали ведьмой, взрослые ее недолюбливали, а дети боялись. Эта страшная встреча с призраком заставляет Саймона усомниться в том, что он сможет защитить своего ребенка от ужасающего зла, которое с каждым часом их прибывания в этом месте становится все могущественнее.- - -Качество видео: WEB-DLRip-AVC / WEB-DL 1080p
Формат видео: MKV-Видео: MPEG-4 AVC, 768x384 (2.000), 23.976 fps, ~1159 kbps avg, 0.164 bit/pixel
Аудио: 48 kHz, AC3 Dolby Digital, 2/0 (L,R) ch, ~192 kbps avg-

MediaInfo

Код:Complete name : D:\Раздача\Проклятый дом (2018) WEB-DLRip-AVC_ivanes.mkv
Format : Matroska
Format version : Version 2
File size : 745 MiB
Duration : 1 h 17 min
Overall bit rate : 1 350 kb/s
Movie name : Проклятый дом (2018) WEB-DLRip-AVC_ivanes
Encoded date : UTC 2019-05-03 10:09:34
Writing application : mkvmerge v4.4.0 ('Die Wiederkehr') сборка от Jan 3 2011 21:40:45
Writing library : libebml v1.0.0 + libmatroska v1.0.0
Cover : Yes
Attachments : cover.jpg
Video
ID : 1
Format : AVC
Format/Info : Advanced Video Codec
Format profile : High@L4.1
Format settings, CABAC : Yes
Format settings, RefFrames : 10 frames
Codec ID : V_MPEG4/ISO/AVC
Duration : 1 h 17 min
Bit rate : 1 159 kb/s
Width : 768 pixels
Height : 384 pixels
Display aspect ratio : 2.000
Frame rate mode : Constant
Frame rate : 23.976 (24000/1001) FPS
Color space : YUV
Chroma subsampling : 4:2:0
Bit depth : 8 bits
Scan type : Progressive
Bits/(Pixel*Frame) : 0.164
Stream size : 624 MiB (84%)
Title : Rip by ivanes
Writing library : x264 core 157 r2935 545de2f
Encoding settings : cabac=1 / ref=10 / deblock=1:-3:-3 / analyse=0x3:0x113 / me=umh / subme=10 / psy=1 / psy_rd=1.00:0.00 / mixed_ref=1 / me_range=32 / chroma_me=1 / trellis=2 / 8x8dct=1 / cqm=0 / deadzone=21,11 / fast_pskip=0 / chroma_qp_offset=-2 / threads=12 / lookahead_threads=3 / sliced_threads=0 / nr=0 / decimate=1 / interlaced=0 / bluray_compat=0 / constrained_intra=0 / bframes=10 / b_pyramid=2 / b_adapt=2 / b_bias=0 / direct=1 / weightb=1 / open_gop=0 / weightp=2 / keyint=240 / keyint_min=23 / scenecut=40 / intra_refresh=0 / rc_lookahead=60 / rc=2pass / mbtree=0 / bitrate=1159 / ratetol=1.0 / qcomp=0.60 / qpmin=0 / qpmax=69 / qpstep=4 / cplxblur=20.0 / qblur=0.5 / vbv_maxrate=50000 / vbv_bufsize=62500 / nal_hrd=none / filler=0 / ip_ratio=1.40 / pb_ratio=1.30 / aq=1:1.00
Default : Yes
Forced : No
Statistics Tags Issue : mkvmerge v10.0.0 ('To Drown In You') 64bit 2019-05-03 10:05:38 / mkvmerge v4.4.0 ('Die Wiederkehr') сборка от Jan 3 2011 21:40:45 2019-05-03 10:09:34
FromStats_BitRate : 1156319
FromStats_Duration : 01:17:09.583000000
FromStats_FrameCount : 110999
FromStats_StreamSize : 669159826
Audio
ID : 2
Format : AC-3
Format/Info : Audio Coding 3
Format settings, Endianness : Big
Codec ID : A_AC3
Duration : 1 h 17 min
Bit rate mode : Constant
Bit rate : 192 kb/s
Channel(s) : 2 channels
Channel positions : Front: L R
Sampling rate : 48.0 kHz
Frame rate : 31.250 FPS (1536 SPF)
Bit depth : 16 bits
Compression mode : Lossy
Stream size : 106 MiB (14%)
Title : HDRezka Studio
Language : Russian
Service kind : Complete Main
Default : Yes
Forced : No

Скриншоты

[cybertorrent.net].t2496.torrent 
Торрент: Зарегистрирован [ 2019-05-03 15:36 ] · 8B0618A9797BC7CEAF5E8E64EA60B322BD95FCBF

Скачать .torrent

Скачать

15 KB

Статус: проверено
Скачан: 0 раз
Размер: 745 MB
terms.php
Профиль ЛС
Показать сообщения:    

Текущее время: 14-Ноя 04:06

Часовой пояс: UTC ± 0



Вы не можете начинать темы
Вы не можете отвечать на сообщения
Вы не можете редактировать свои сообщения
Вы не можете удалять свои сообщения
Вы не можете голосовать в опросах
Вы не можете прикреплять файлы к сообщениям
Вы можете скачивать файлы