Статистика раздачи
Размер:  1,45 GB   |    Зарегистрирован:  7 месяцев 5 дней   |    Скачан:  0 раз
Сидов:  69  [  0 KB/s  ]   Личеров:  5  [  0 KB/s  ]  
 
     
 
 

Гость ®

Пол:
Не указан

Кто-то классный / Someone Great
Страна: США
Жанр: мелодрама, комедия
Год выпуска: 2019
Продолжительность: 01:32:22-Перевод: Любительский (многоголосый закадровый) | HDrezka Studio
Субтитры: нет
Оригинальная аудиодорожка: нет-Режиссер: Дженн Робинсон / Jenn Robinson-В ролях: Джина Родригез, Розарио Доусон, Бриттани Сноу, Лакит Стэнфилд, Питер Вак, Фэйт Логан, ДеВанда Уайз, Алекс Моффат, Ребекка Наоми Джонс, Томас Копаче-Описание: Начинающая музыкальная журналистка Дженни получает работу своей мечты в культовом журнале и собирается переехать в Сан-Франциско. Вместо того, чтобы последовать за возлюбленной, её парень заявляет о неготовности что-то менять и предлагает расстаться. Чтобы вылечить свое разбитое сердце, Дженни приглашает своих лучших подруг Эрин и Блэр провести вместе прощальный вечер в Нью-Йорке.- -Качество видео: WEB-DLRip
Формат видео: AVI
Видео: 720x304 (2.37:1), 23.976 fps, XviD build 73 ~2053 kbps avg, 0.39 bit/pixel
Аудио: 48 kHz, AC3 Dolby Digital, 2/0 (L,R) ch, ~192 kbps-[box]Сэмпл[/box]-

MediaInfo

Код:Формат : AVI
Формат/Информация : Audio Video Interleave
Размер файла : 1,45 Гбайт
Продолжительность : 1 ч. 32 м.
Общий поток : 2255 Кбит/сек
Название фильма : Кто-то классный_2019_WEB-DLRip
Программа кодирования : VirtualDubMod 1.5.10.3 | www.virtualdub-fr.org || (build 2550/release)
Авторское право : порошков
Видео
Идентификатор : 0
Формат : MPEG-4 Visual
Профиль формата : Advanced Simple@L5
Настройки формата : BVOP1 / Custom Matrix
Параметр BVOP формата : 1
Параметр QPel формата : Нет
Параметр GMC формата : Без точки перехода
Параметр матрицы формата : Выборочная
Идентификатор кодека : XVID
Идентификатор кодека/Подсказка : XviD
Продолжительность : 1 ч. 32 м.
Битрейт : 2054 Кбит/сек
Ширина : 720 пикселей
Высота : 304 пикселя
Соотношение сторон : 2,35:1
Частота кадров : 23,976 (24000/1001) кадра/сек
Цветовое пространство : YUV
Субдискретизация насыщенности : 4:2:0
Битовая глубина : 8 бит
Тип развёртки : Прогрессивная
Метод сжатия : С потерями
Бит/(Пиксели*Кадры) : 0.391
Размер потока : 1,32 Гбайт (91%)
Библиотека кодирования : XviD 73
Аудио
Идентификатор : 1
Формат : AC-3
Формат/Информация : Audio Coding 3
Коммерческое название : Dolby Digital
Идентификатор кодека : 2000
Продолжительность : 1 ч. 32 м.
Вид битрейта : Постоянный
Битрейт : 192 Кбит/сек
Каналы : 2 канала
ChannelLayout : L R
Частота : 48,0 КГц
Частота кадров : 31,250 кадров/сек (1536 SPF)
Битовая глубина : 16 бит
Метод сжатия : С потерями
Размер потока : 127 Мбайт (9%)
Выравнивание : Разделение по промежуткам
Продолжительность промежутка : 42 мс. (1,00 видеокадр)
Время предзагрузки промежутка : 500 мс.
ServiceKind/String : Complete Main

Скриншоты


[cybertorrent.net].t2491.torrent 
Торрент: Зарегистрирован [ 2019-05-03 15:36 ] · A1524CA0DD0905802C25C0C30B3DA0DAA8FCC8AD

Скачать .torrent

Скачать

15 KB

Статус: проверено
Скачан: 0 раз
Размер: 1,45 GB
terms.php
Показать сообщения:    

Текущее время: 09-Дек 06:12

Часовой пояс: UTC ± 0



Вы не можете начинать темы
Вы не можете отвечать на сообщения
Вы не можете редактировать свои сообщения
Вы не можете удалять свои сообщения
Вы не можете голосовать в опросах
Вы не можете прикреплять файлы к сообщениям
Вы можете скачивать файлы