Статистика раздачи
Размер:  1,46 GB   |    Зарегистрирован:  6 месяцев 14 дней   |    Скачан:  0 раз

Полного источника не было: Никогда

 
     
 
 

serzh ®

Пол:
Не указан
Стаж:
8 месяцев 5 дней
Сообщений:
384

Малыш Жозеф / Маленький Жозеф / Petit Joseph
Страна: Франция
Жанр: драма, семейный
Год выпуска: 1982
Продолжительность: 01:23:22
Перевод: Любительский (двухголосый закадровый) Владислав Данилов, Алена Соколова
Субтитры: русские (Антон Каптелов)
Оригинальная аудиодорожка: французский
Режиссер: Жан-Мишель Баржоль / Jean-Michel Barjol
В ролях: Найше Кодрон / Naïché Caudron, Жан-Марк Тибо / Jean-Marc Thibault, Juliette Brac, Жан-Поль Бланк / Jean-Paul Blanc, Изабель Вайнгартен / Isabelle Weingarten, Паскаль де Буассон / Pascale de Boysson, Кристоф Доннер / Christophe Donner, Ноэль Мени / Noëlle Mesny и др.
Описание: Жозеф - семилетний мальчик, проживающий со своими родителями в пригороде Парижа. Увы, но брак его родителей нельзя назвать идеальным. И поскольку его матери скоро предстоит отправиться в роддом, Жозефа на предстоящие каникулы отправляют к дедушке с бабушкой. Вместе с ними и тремя дядьками наш герой совершает поездку на север Франции и в Англию. Однако по возвращении Жозеф узнает, что у него теперь есть сестра – Элиза. И, как ни странно, но именно рождение сестры стало началом краха их семьи.
Доп. информация: https://www.imdb.com/title/tt0296139/
Перевод - Антон Каптелов 2019
Озвучание - Владислав Данилов и Алёна Соколова 2019
Cведение звука - Diablo
Сэмпл: http://multi-up.com/1231079
Качество видео: DVDRip
Формат видео: AVI
Видео: XviD, 704x416 (1.692), 25.000 fps, 2115 kbps
Аудио: AC3, 48000 Hz, 2 ch, 192 kbps (русский)
Аудио 2: AC3, 48000 Hz, 2 ch, 192 kbps (французский)
Формат субтитров: softsub (SRT)

MediaInfo

General
Complete name : F:\Рутрекер\Petit Joseph\Petit Joseph (1982).avi
Format : AVI
Format/Info : Audio Video Interleave
File size : 1.46 GiB
Duration : 1h 23mn
Overall bit rate : 2 513 Kbps
Writing application : VirtualDubMod 1.5.10.2 (build 2542/release)
Writing library : VirtualDubMod build 2542/release
Video
ID : 0
Format : MPEG-4 Visual
Format profile : Advanced Simple@L5
Format settings, BVOP : 1
Format settings, QPel : No
Format settings, GMC : No warppoints
Format settings, Matrix : Default (MPEG)
Codec ID : XVID
Codec ID/Hint : XviD
Duration : 1h 23mn
Bit rate : 2 115 Kbps
Width : 704 pixels
Height : 416 pixels
Display aspect ratio : 1.692
Frame rate : 25.000 fps
Color space : YUV
Chroma subsampling : 4:2:0
Bit depth : 8 bits
Scan type : Progressive
Compression mode : Lossy
Bits/(Pixel*Frame) : 0.289
Stream size : 1.23 GiB (84%)
Writing library : XviD 1.2.1 (UTC 2008-12-04)
Audio #1
ID : 1
Format : AC-3
Format/Info : Audio Coding 3
Mode extension : CM (complete main)
Format settings, Endianness : Big
Codec ID : 2000
Duration : 1h 23mn
Bit rate mode : Constant
Bit rate : 192 Kbps
Channel(s) : 2 channels
Channel positions : Front: L R
Sampling rate : 48.0 KHz
Bit depth : 16 bits
Compression mode : Lossy
Stream size : 114 MiB (8%)
Alignment : Split accross interleaves
Interleave, duration : 40 ms (1.00 video frame)
Interleave, preload duration : 500 ms
Audio #2
ID : 2
Format : AC-3
Format/Info : Audio Coding 3
Mode extension : CM (complete main)
Format settings, Endianness : Big
Codec ID : 2000
Duration : 1h 23mn
Bit rate mode : Constant
Bit rate : 192 Kbps
Channel(s) : 2 channels
Channel positions : Front: L R
Sampling rate : 48.0 KHz
Bit depth : 16 bits
Compression mode : Lossy
Stream size : 114 MiB (8%)
Alignment : Split accross interleaves
Interleave, duration : 40 ms (1.00 video frame)
Interleave, preload duration : 500 ms

Скриншот c названием фильма

[cybertorrent.net].t2486.torrent 
Торрент: Зарегистрирован [ 2019-05-03 15:36 ] · 2A12CF72B252869EF956E4DADB1D744952091EB3

Скачать .torrent

Скачать

15 KB

Статус: проверено
Скачан: 0 раз
Размер: 1,46 GB
terms.php
Профиль ЛС
Показать сообщения:    

Текущее время: 17-Ноя 18:14

Часовой пояс: UTC ± 0



Вы не можете начинать темы
Вы не можете отвечать на сообщения
Вы не можете редактировать свои сообщения
Вы не можете удалять свои сообщения
Вы не можете голосовать в опросах
Вы не можете прикреплять файлы к сообщениям
Вы можете скачивать файлы