Статистика раздачи
Размер:  2,34 GB   |    Зарегистрирован:  7 месяцев 2 дня   |    Скачан:  0 раз
Сидов:  12  [  0 KB/s  ]   Личеров:  1  [  0 KB/s  ]  
 
     
 
 

Гость ®

Пол:
Не указан

Мастер охоты на единорога
Год выпуска: 2019
Производство: Марс Медиа Энтертейнмент
Жанр: детектив
Продолжительность: ~00:44:00 серия
Субтитры: нет
Режиссёр: Юрий Попович
В ролях: Елена Великанова, Максим Щёголев, Любовь Германова, Валерий Сторожик, Виктория Герасимова, Дмитрий Бедерин, Кирилл Рубцов, Оксана Гуляева, Людмила Свитова, Анатолий Гущин, Анна Попова, Владимир Шульга, Алексей Гнилицкий
Описание: На Александру Корзухину выходит необычный заказчик. Загадочность и некоторая мистичность клиента заставляет Корзухину согласиться на поиски старинного гобелена. Словно под гипнозом мужчины, Саша пускается в новое приключение, которое становится всё опаснее с каждым шагом. Очевидно, что за Единорогом охотится не она одна, но каждый, кто может пролить свет на дело, умирает до того, как Саша успевает задать вопросы. А вопросов все больше, и главный из них: что за человек этот заказчик, да и человек ли он?

Реклама: Нет.
Кинопоиск
Все раздачи сериала
Sample
Качество: WEBRip - 25Kuzmich
Формат: AVI
Видео кодек: XviD
Аудио кодек: AC3
Видео: 720x400 (1.80:1), 25 fps, XviD ~1700 kbps avg, 0.238 bit/pixel
Аудио: 48.0 kHz, AC3 Dolby Digital, 2/0 (L,R) ch, ~ 192 kbps

MI

General
Complete name : D:\Master.ohoty.na.edinoroga.2019.WEB-DLRip.25Kuzmich\Master.ohoty.na.edinoroga.(01.seriya.iz.04).WEB-DLRip.25Kuzmich.avi
Format : AVI
Format/Info : Audio Video Interleave
File size : 600 MiB
Duration : 43 min 44 s
Overall bit rate : 1 917 kb/s
Writing application : VirtualDubMod 1.5.10.3 | www.virtualdub-fr.org || (build 2550/release)
Writing library : VirtualDubMod build 2550/release
Video
ID : 0
Format : MPEG-4 Visual
Format profile : Advanced Simple@L5
Format settings : BVOP1
Format settings, BVOP : 1
Format settings, QPel : No
Format settings, GMC : No warppoints
Format settings, Matrix : Default (MPEG)
Codec ID : XVID
Codec ID/Hint : XviD
Duration : 43 min 44 s
Bit rate : 1 715 kb/s
Width : 720 pixels
Height : 400 pixels
Display aspect ratio : 16:9
Frame rate : 25.000 FPS
Color space : YUV
Chroma subsampling : 4:2:0
Bit depth : 8 bits
Scan type : Progressive
Compression mode : Lossy
Bits/(Pixel*Frame) : 0.238
Stream size : 536 MiB (89%)
Writing library : XviD 73
Audio
ID : 1
Format : AC-3
Format/Info : Audio Coding 3
Codec ID : 2000
Duration : 43 min 44 s
Bit rate mode : Constant
Bit rate : 192 kb/s
Channel(s) : 2 channels
Channel positions : Front: L R
Sampling rate : 48.0 kHz
Frame rate : 31.250 FPS (1536 SPF)
Bit depth : 16 bits
Compression mode : Lossy
Stream size : 60.1 MiB (10%)
Alignment : Split accross interleaves
Interleave, duration : 40 ms (1.00 video frame)
Interleave, preload duratio : 500 ms
Service kind : Complete Main

Скриншоты


[cybertorrent.net].t2484.torrent 
Торрент: Зарегистрирован [ 2019-05-03 15:36 ] · 51229001B28ADC4EEA1D9670E6AD8808911B1D77

Скачать .torrent

Скачать

13 KB

Статус: проверено
Скачан: 0 раз
Размер: 2,34 GB
terms.php
Показать сообщения:    

Текущее время: 05-Дек 15:55

Часовой пояс: UTC ± 0



Вы не можете начинать темы
Вы не можете отвечать на сообщения
Вы не можете редактировать свои сообщения
Вы не можете удалять свои сообщения
Вы не можете голосовать в опросах
Вы не можете прикреплять файлы к сообщениям
Вы можете скачивать файлы