Статистика раздачи
Размер:  2,17 GB   |    Зарегистрирован:  7 месяцев 29 дней   |    Скачан:  0 раз

Полного источника не было: Никогда

 
     
 
 

Гость ®

Пол:
Не указан

Бархатная бензопила / Velvet Buzzsaw
Страна: США
Жанр: ужасы, триллер, комедия, криминал
Год выпуска: 2019
Продолжительность: 01:52:30-Перевод: Профессиональный (дублированный) | Невафильм
Субтитры: русские, английские
Оригинальная аудиодорожка: английский-Режиссер: Дэн Гилрой / Dan Gilroy-В ролях: Джейк Джилленхол (Morf Vandewalt), Джон Малкович (Piers), Билли Магнуссен (Bryson), Тони Коллетт (Gretchen), Наталия Дайер (Coco), Рене Руссо (Rhodora Haze), Том Стёрридж (Jon Dondon), Зэйв Эштон (Josephina), Питер Гадиот (Ricky Blane), Пасэй Пау (Attorney), Пэт Хили (Actor)-Описание: Мир современного искусства населяют самые разные персонажи: ценители, знатоки, художники, воры, обманщики. Все они считают, что знают и любят настоящее искусство. Однажды они сталкиваются с чем-то необычным - потрясающими картинками пожилого художника-затворника. Он словно вложил в свои работы тайный смысл. Герои с жадностью кидаются на полотна, но быстро понимают: за краской и фигурами скрывается нечто зловещее.-Качество видео: WEB-DLRip
Формат видео: AVI
Видео: 720x384 (1.88:1), 24.000 fps, XviD build 73 ~1992 kbps avg, 0.30 bit/pixel
Аудио 1: 48 kHz, AC3 Dolby Digital, 3/2 (L,C,R,l,r) + LFE ch, ~384 kbps | RUS
Аудио 2: 48 kHz, AC3 Dolby Digital, 3/2 (L,C,R,l,r) + LFE ch, ~384 kbps | ENG-[box]Сэмпл[/box]-

MediaInfo

Код:Формат : AVI
Формат/Информация : Audio Video Interleave
Профиль формата : OpenDML
Размер файла : 2,17 Гбайт
Продолжительность : 1 ч. 52 м.
Общий поток : 2767 Кбит/сек
Программа кодирования : VirtualDubMod 1.5.10.3 | www.virtualdub-fr.org || (build 2550/release)
Библиотека кодирования : VirtualDubMod build 2550/release
Видео
Идентификатор : 0
Формат : MPEG-4 Visual
Профиль формата : Advanced Simple@L5
Настройки формата : BVOP1 / Custom Matrix
Параметр BVOP формата : 1
Параметр QPel формата : Нет
Параметр GMC формата : Без точки перехода
Параметр матрицы формата : Выборочная
Идентификатор кодека : XVID
Идентификатор кодека/Подсказка : XviD
Продолжительность : 1 ч. 52 м.
Битрейт : 1981 Кбит/сек
Ширина : 720 пикселей
Высота : 384 пикселя
Соотношение сторон : 1,85:1
Частота кадров : 24,000 кадра/сек
Цветовое пространство : YUV
Субдискретизация насыщенности : 4:2:0
Битовая глубина : 8 бит
Тип развёртки : Прогрессивная
Метод сжатия : С потерями
Бит/(Пиксели*Кадры) : 0.299
Размер потока : 1,56 Гбайт (72%)
Библиотека кодирования : XviD 73
Аудио #1
Идентификатор : 1
Формат : AC-3
Формат/Информация : Audio Coding 3
Коммерческое название : Dolby Digital
Идентификатор кодека : 2000
Продолжительность : 1 ч. 52 м.
Вид битрейта : Постоянный
Битрейт : 384 Кбит/сек
Каналы : 6 каналов
Channel layout : L R C LFE Ls Rs
Частота : 48,0 КГц
Частота кадров : 31,250 кадров/сек (1536 SPF)
Битовая глубина : 16 бит
Метод сжатия : С потерями
Размер потока : 309 Мбайт (14%)
Выравнивание : Разделение по промежуткам
Продолжительность промежутка : 42 мс. (1,00 видеокадр)
Время предзагрузки промежутка : 500 мс.
Заголовок : Russian
ServiceKind/String : Complete Main
Аудио #2
Идентификатор : 2
Формат : AC-3
Формат/Информация : Audio Coding 3
Коммерческое название : Dolby Digital
Идентификатор кодека : 2000
Продолжительность : 1 ч. 52 м.
Вид битрейта : Постоянный
Битрейт : 384 Кбит/сек
Каналы : 6 каналов
Channel layout : L R C LFE Ls Rs
Частота : 48,0 КГц
Частота кадров : 31,250 кадров/сек (1536 SPF)
Битовая глубина : 16 бит
Метод сжатия : С потерями
Размер потока : 309 Мбайт (14%)
Выравнивание : Разделение по промежуткам
Продолжительность промежутка : 42 мс. (1,00 видеокадр)
Время предзагрузки промежутка : 500 мс.
Заголовок : English
ServiceKind/String : Complete Main

Скриншоты


[cybertorrent.net].t248.torrent 
Торрент: Зарегистрирован [ 2019-03-18 10:04 ] · 6B8134C00F5E9AC405ED717991EC3573C7E6C628

Скачать .torrent

Скачать

12 KB

Статус: проверено
Скачан: 0 раз
Размер: 2,17 GB
terms.php
Показать сообщения:    

Текущее время: 16-Ноя 22:05

Часовой пояс: UTC ± 0



Вы не можете начинать темы
Вы не можете отвечать на сообщения
Вы не можете редактировать свои сообщения
Вы не можете удалять свои сообщения
Вы не можете голосовать в опросах
Вы не можете прикреплять файлы к сообщениям
Вы можете скачивать файлы