Статистика раздачи
Размер:  1,46 GB   |    Зарегистрирован:  6 месяцев 9 дней   |    Скачан:  0 раз

Полного источника не было: Никогда

 
     
 
 

serzh ®

Пол:
Не указан
Стаж:
8 месяцев
Сообщений:
384

Убийство в американском стиле / Killing American Style
Страна: США, Канада
Жанр: Боевик, триллер, криминал
Год выпуска: 1990
Продолжительность: 01:40:54
Перевод: Авторский (одноголосый закадровый) Андрей Дольский
Субтитры: нет
Оригинальная аудиодорожка: английский
Режиссер: Амир Шерван / Amir Shervan
В ролях: Харольд Даймонд
Джим Браун
Роберт З’Дар
Хоселито Рескобер
Джон Линч
Вероника Пол
Джимми Уильямс
G. Alexander Virdon
Бретт Джонстон
Buck Striker
Описание: Четверо бандитов совершают вооруженное ограбление, но их сдает охранник, давший наводку. Через него их всех и «вычисляют» полицейские. Брат одного из них организует дерзкое нападение на специальный автобус, перевозивший преступников в тюрьму. Оказавшись на свободе, они захватывают богатый особняк с двумя красивыми девушками и мальчиком. Так у них появляются заложники. Убийцы понимают, что полиция ищет их по всей округе. Хозяин дома вынужден выполнять все приказы подонков, но для зрителей приготовлен в конце приятный сюрприз - разозлившийся хозяин вспоминает, что он специалист по боевым искусствам… (М. Иванов)
Доп. информация: За ссылку на фильм большое спасибо William 1965
Перевод выполнен на Заказ
Сэмпл: https://yadi.sk/i/t9MKv46AvCuxgA
Качество видео: HDRip (Исходник KILLING AMERICAN STYLE (Remastered) HD (1990)
Формат видео: AVI
Видео: XviD , 720x400(1.88:1), 23.976 fps, 1 675 Kbps
Аудио: AC3 , 48 kHz , 192.00 kbps avg , 2/0 (L,R) ch
Аудио 2: AC3 , 48 kHz , 192.00 kbps avg , 2/0 (L,R) ch

MediaInfo

Complete name Убийство в американском стиле 1990 (Dolskiy).avi
Format : AVI
Format/Info : Audio Video Interleave
File size : 1.46 GiB
Duration : 1h 40mn
Overall bit rate : 2 073 Kbps
Writing application : VirtualDubMod 1.5.10.3 | www.virtualdub-fr.org || (build 2550/release)
Writing library : VirtualDubMod build 2550/release
Video
ID : 0
Format : MPEG-4 Visual
Format profile : Advanced Simple@L5
Format settings, BVOP : 1
Format settings, QPel : No
Format settings, GMC : No warppoints
Format settings, Matrix : Custom
Codec ID : XVID
Codec ID/Hint : XviD
Duration : 1h 40mn
Bit rate : 1 675 Kbps
Width : 720 pixels
Height : 400 pixels
Display aspect ratio : 16:9
Frame rate : 23.976 (23976/1000) fps
Color space : YUV
Chroma subsampling : 4:2:0
Bit depth : 8 bits
Scan type : Progressive
Compression mode : Lossy
Bits/(Pixel*Frame) : 0.243
Stream size : 1.18 GiB (81%)
Writing library : XviD 73
Audio #1
ID : 1
Format : AC-3
Format/Info : Audio Coding 3
Mode extension : CM (complete main)
Format settings, Endianness : Big
Codec ID : 2000
Duration : 1h 40mn
Bit rate mode : Constant
Bit rate : 192 Kbps
Channel(s) : 2 channels
Channel positions : Front: L R
Sampling rate : 48.0 KHz
Frame rate : 31.250 fps (1536 spf)
Compression mode : Lossy
Stream size : 139 MiB (9%)
Alignment : Split accross interleaves
Interleave, duration : 42 ms (1.00 video frame)
Interleave, preload duratio : 500 ms
Audio #2
ID : 2
Format : AC-3
Format/Info : Audio Coding 3
Mode extension : CM (complete main)
Format settings, Endianness : Big
Codec ID : 2000
Duration : 1h 40mn
Bit rate mode : Constant
Bit rate : 192 Kbps
Channel(s) : 2 channels
Channel positions : Front: L R
Sampling rate : 48.0 KHz
Frame rate : 31.250 fps (1536 spf)
Compression mode : Lossy
Stream size : 139 MiB (9%)
Alignment : Split accross interleaves
Interleave, duration : 42 ms (1.00 video frame)
Interleave, preload duratio : 500 ms
[cybertorrent.net].t2477.torrent 
Торрент: Зарегистрирован [ 2019-05-03 15:36 ] · C6A47E7609757F7E740300C9C4A7F39BF0D612DA

Скачать .torrent

Скачать

15 KB

Статус: проверено
Скачан: 0 раз
Размер: 1,46 GB
terms.php
Профиль ЛС
Показать сообщения:    

Текущее время: 13-Ноя 00:07

Часовой пояс: UTC ± 0



Вы не можете начинать темы
Вы не можете отвечать на сообщения
Вы не можете редактировать свои сообщения
Вы не можете удалять свои сообщения
Вы не можете голосовать в опросах
Вы не можете прикреплять файлы к сообщениям
Вы можете скачивать файлы