Статистика раздачи
Размер:  1,45 GB   |    Зарегистрирован:  6 месяцев 10 дней   |    Скачан:  0 раз
Сидов:  22  [  0 KB/s  ]   Личеров:  4  [  0 KB/s  ]  
 
     
 
 

солнышко ®

Пол:
Не указан
Стаж:
8 месяцев 1 день
Сообщений:
565

Окончательный приговор / Ultimate Justice
Страна: Германия
Жанр: боевик, триллер
Год выпуска: 2017
Продолжительность: 01:33:17
Перевод: Одноголосый закадровый Синема УС
Субтитры: нет
Оригинальная аудиодорожка: английский
Режиссер: Мартин Кристофер Боде / Martin Christopher Bode
В ролях: Марк Дакаскос, Брэндон Ри, Маттиас Хьюз, Майк Мёллер, Майк Лидер, Вольфганг Рим, Мартин Баден, Генри Мюллер
Описание: После того, как неизвестные нападают на семью одного из своих, команда бывших элитных бойцов возвращается к работе и ввязывается в жестокую игру.
Качество видео: WEB-DLRip
Формат видео: AVI
Видео: XviD, 720x304 (2,36:1), 23,976 fps, 1894 kbps
Аудио 1: AC3, 48 kHz, 2 ch, 192 kbps (Rus)
Аудио 2: MP3, 48 kHz, 2 ch, 128 kbps (Eng)
За работу с аудиодорожкой большое спасибо Нордер

MediaInfo

Общее
Полное имя : Ultimate Justice 2017 WEB-DLRip.avi
Формат : AVI
Формат/Информация : Audio Video Interleave
Размер файла : 1,45 Гбайт
Продолжительность : 1 ч. 33 м.
Общий поток : 2228 Кбит/сек
Программа кодирования : VirtualDubMod 1.5.10.2 (build 2542/release)
Библиотека кодирования : VirtualDubMod build 2542/release
Видео
Идентификатор : 0
Формат : MPEG-4 Visual
Профиль формата : Advanced Simple@L5
Настройки формата : BVOP2
Параметр BVOP формата : 2
Параметр QPel формата : Нет
Параметр GMC формата : Без точки перехода
Параметр матрицы формата : Default (H.263)
Идентификатор кодека : XVID
Идентификатор кодека/Подсказка : XviD
Продолжительность : 1 ч. 33 м.
Битрейт : 1894 Кбит/сек
Ширина : 720 пикселей
Высота : 304 пикселя
Соотношение сторон : 2,35:1
Частота кадров : 23,976 (24000/1001) кадра/сек
Цветовое пространство : YUV
Субдискретизация насыщенности : 4:2:0
Битовая глубина : 8 бит
Тип развёртки : Прогрессивная
Метод сжатия : С потерями
Бит/(Пиксели*Кадры) : 0.361
Размер потока : 1,23 Гбайт (85%)
Библиотека кодирования : XviD 66
Аудио #1
Идентификатор : 1
Формат : AC-3
Формат/Информация : Audio Coding 3
Идентификатор кодека : 2000
Продолжительность : 1 ч. 33 м.
Вид битрейта : Постоянный
Битрейт : 192 Кбит/сек
Каналы : 2 канала
Расположение каналов : Front: L R
Частота : 48,0 КГц
Частота кадров : 31,250 кадров/сек (1536 SPF)
Битовая глубина : 16 бит
Метод сжатия : С потерями
Размер потока : 128 Мбайт (9%)
Выравнивание : Разделение по промежуткам
Продолжительность промежутка : 42 мс. (1,00 видеокадр)
Время предзагрузки промежутка : 500 мс.
ServiceKind/String : Complete Main
Аудио #2
Идентификатор : 2
Формат : MPEG Audio
Версия формата : Version 1
Профиль формата : Layer 3
Настройки формата : Joint stereo / MS Stereo
Идентификатор кодека : 55
Идентификатор кодека/Подсказка : MP3
Продолжительность : 1 ч. 33 м.
Вид битрейта : Постоянный
Битрейт : 128 Кбит/сек
Каналы : 2 канала
Частота : 48,0 КГц
Метод сжатия : С потерями
Размер потока : 85,4 Мбайт (6%)
Выравнивание : Разделение по промежуткам
Продолжительность промежутка : 42 мс. (1,00 видеокадр)
Время предзагрузки промежутка : 500 мс.
Библиотека кодирования : LAME3.97
[cybertorrent.net].t2475.torrent 
Торрент: Зарегистрирован [ 2019-05-03 15:36 ] · BCC4C5E9213D677C042C7C2EFBEB0AD68304C105

Скачать .torrent

Скачать

15 KB

Статус: проверено
Скачан: 0 раз
Размер: 1,45 GB
terms.php
Профиль ЛС
Показать сообщения:    

Текущее время: 14-Ноя 04:03

Часовой пояс: UTC ± 0



Вы не можете начинать темы
Вы не можете отвечать на сообщения
Вы не можете редактировать свои сообщения
Вы не можете удалять свои сообщения
Вы не можете голосовать в опросах
Вы не можете прикреплять файлы к сообщениям
Вы можете скачивать файлы