Статистика раздачи
Размер:  1,38 GB   |    Зарегистрирован:  7 месяцев 8 дней   |    Скачан:  0 раз

Полного источника не было: Никогда

 
     
 
 

Гость ®

Пол:
Не указан

Когда жизнь не стоит на пути / When Life Keeps Getting In The Way / Life Gets in the Way
Страна: США
Жанр: драма, мелодрама, комедия
Год выпуска: 2014
Продолжительность: 01:14:04
Перевод: Профессиональный (многоголосый закадровый) FOX
Субтитры: нет
Оригинальная аудиодорожка: английский
Режиссер: Лилиан Матта / Lili Matta
В ролях: Донна Миллс
Julie Sabray
Джеффри М. Ривз
Маккензи Мэйсон
Грегори Зариан
Уильям Морс
Рик Кроуфорд
Джоэнн Скорчиа
Майкл Донован
Джек Бремен
Описание: У немолодой женщины доктора Голдштейн в прошлом было много неблагополучных мгновений, а самым большим её жизненным разочарованием является одиночество. Ей очень часто приходилось принимать непростые решения, при этом обычное женское счастье так и осталось несбыточной мечтой. Главная героиня киноленты «Когда жизнь не стоит на пути» пытается разобраться с причинами ошибок прошлого и наладить жизнь в своём настоящем. Но построить серьёзные отношения в Лос-Анджелесе доктору Голдштейн весьма непросто.
Сэмпл: http://multi-up.com/1231044
Качество видео: HDTVRip
Формат видео: AVI
Видео: MPEG4, XviD, 720x400 (16:9), 25.000 fps, 2 262 Kbps (0.314 bit/pixel)
Аудио: AC-3, 48.0 KHz, 2 ch, 192 Kbps, CBR - русский
Аудио 2: AC-3, 48.0 KHz, 2 ch, 192 Kbps, CBR - английский

MediaInfo

Общее
Полное имя : F:\Когда жизнь не стоит на пути.avi
Формат : AVI
Формат/Информация : Audio Video Interleave
Размер файла : 1,38 Гбайт
Продолжительность : 1 ч. 14 м.
Общий поток : 2661 Кбит/сек
Название фильма : Когда жизнь не стоит на пути / When Life Keeps Getting In The Way / Life Gets in the Way (2014)
Программа кодирования : VirtualDubMod 1.5.10.2 (build 2540/release)
Библиотека кодирования : VirtualDubMod build 2540/release
Авторское право : miha2154
Видео
Идентификатор : 0
Формат : MPEG-4 Visual
Профиль формата : Advanced Simple@L5
Настройки формата : BVOP1 / Custom Matrix
Параметр BVOP формата : 1
Параметр QPel формата : Нет
Параметр GMC формата : Без точки перехода
Параметр матрицы формата : Выборочная
Идентификатор кодека : XVID
Идентификатор кодека/Подсказка : XviD
Продолжительность : 1 ч. 14 м.
Битрейт : 2262 Кбит/сек
Ширина : 720 пикселей
Высота : 400 пикселей
Соотношение сторон : 16:9
Частота кадров : 25,000 кадров/сек
Цветовое пространство : YUV
Субдискретизация насыщенности : 4:2:0
Битовая глубина : 8 бит
Тип развёртки : Прогрессивная
Метод сжатия : С потерями
Бит/(Пиксели*Кадры) : 0.314
Размер потока : 1,17 Гбайт (85%)
Библиотека кодирования : XviD 65
Аудио #1
Идентификатор : 1
Формат : AC-3
Формат/Информация : Audio Coding 3
Коммерческое название : Dolby Digital
Идентификатор кодека : 2000
Продолжительность : 1 ч. 14 м.
Вид битрейта : Постоянный
Битрейт : 192 Кбит/сек
Каналы : 2 канала
Channel layout : L R
Частота : 48,0 КГц
Частота кадров : 31,250 кадров/сек (1536 SPF)
Битовая глубина : 16 бит
Метод сжатия : С потерями
Размер потока : 102 Мбайт (7%)
Выравнивание : Разделение по промежуткам
Продолжительность промежутка : 40 мс. (1,00 видеокадр)
Время предзагрузки промежутка : 500 мс.
Заголовок : Профессиональный (многоголосый, закадровый)
ServiceKind/String : Complete Main
Аудио #2
Идентификатор : 2
Формат : AC-3
Формат/Информация : Audio Coding 3
Коммерческое название : Dolby Digital
Идентификатор кодека : 2000
Продолжительность : 1 ч. 14 м.
Вид битрейта : Постоянный
Битрейт : 192 Кбит/сек
Каналы : 2 канала
Channel layout : L R
Частота : 48,0 КГц
Частота кадров : 31,250 кадров/сек (1536 SPF)
Битовая глубина : 16 бит
Метод сжатия : С потерями
Размер потока : 102 Мбайт (7%)
Выравнивание : Разделение по промежуткам
Продолжительность промежутка : 40 мс. (1,00 видеокадр)
Время предзагрузки промежутка : 500 мс.
Заголовок : Английский
ServiceKind/String : Complete Main

Скриншоты


Скрин с названием

[cybertorrent.net].t2462.torrent 
Торрент: Зарегистрирован [ 2019-05-02 17:09 ] · 69611CC9C99DFA3B1E6D6CDC8CE0EE6C969CFC38

Скачать .torrent

Скачать

14 KB

Статус: проверено
Скачан: 0 раз
Размер: 1,38 GB
terms.php
Показать сообщения:    

Текущее время: 11-Дек 07:08

Часовой пояс: UTC ± 0



Вы не можете начинать темы
Вы не можете отвечать на сообщения
Вы не можете редактировать свои сообщения
Вы не можете удалять свои сообщения
Вы не можете голосовать в опросах
Вы не можете прикреплять файлы к сообщениям
Вы можете скачивать файлы