Статистика раздачи
Размер:  2,4 GB   |    Зарегистрирован:  6 месяцев 20 дней   |    Скачан:  0 раз
Сидов:  53  [  0 KB/s  ]   Личеров:  1  [  0 KB/s  ]  
 
     
 
 

Гость ®

Пол:
Не указан

Отпуск за период службы- Год выпуска: 2019
Производство: Вайт Медиа
Жанр: Криминал, боевик, мелодрама
Продолжительность: ~ 00:48:00
Субтитры: нет-Режиссёр: Станислав Мареев-В ролях: Игорь Новосёлов, Кристина Борейко, Оксана Чивелева, Андрей Новик, Марина Волкова, Александр Ефремов, Александр Фисенко, Павел Харланчук-Описание: Сержант-контрактник Игорь Беликов берет незапланированный отпуск, чтобы навестить якобы больного отца. Дорога домой становится для него нелегким испытанием. Спасаясь от неожиданного нападения, он убивает нескольких преступников и угоняет фургон, в котором находится ценный груз. Владельцы груза и полицейские начинают на Игоря настоящую охоту. Сыщики, в отличие от бандитов, хотят для начала разобраться, зачем Беликов взял «отпуск за период службы», ведь его отец на самом деле жив-здоров, а сестра Ира уехала на все лето в гости к подруге…-Реклама: Нет-Сэмпл: http://multi-up.com/1231019-Качество: WEBRip - Files-x
Формат: AVI
Видео кодек: XviD
Аудио кодек: AC3
Видео: XviD, 720x400 (16:9), 25,000 кадров/сек, ~1600 Кбит/сек
Аудио: AC3, 48,0 kHz, 2 ch, 192 Кбит/сек-

MI

Общее
Полное имя : E:\Отпуск за период службы.2019.WEB-DLRip. Files-x\01. Отпуск за период службы.2019.WEB-DLRip. Files-x.avi
Формат : AVI
Формат/Информация : Audio Video Interleave
Размер файла : 606 Мбайт
Продолжительность : 47 м. 1 с.
Общий поток : 1802 Кбит/сек
Программа кодирования : VirtualDubMod 1.5.10.3 | www.virtualdub-fr.org || (build 2550/release)
Библиотека кодирования : VirtualDubMod build 2550/release
Видео
Идентификатор : 0
Формат : MPEG-4 Visual
Профиль формата : Advanced Simple@L5
Настройки формата : BVOP1 / Custom Matrix
Параметр BVOP формата : 1
Параметр QPel формата : Нет
Параметр GMC формата : Без точки перехода
Параметр матрицы формата : Выборочная
Идентификатор кодека : XVID
Идентификатор кодека/Подсказка : XviD
Продолжительность : 47 м. 1 с.
Битрейт : 1600 Кбит/сек
Ширина : 720 пикселей
Высота : 400 пикселей
Соотношение сторон : 16:9
Частота кадров : 25,000 кадров/сек
Цветовое пространство : YUV
Субдискретизация насыщенности : 4:2:0
Битовая глубина : 8 бит
Тип развёртки : Прогрессивная
Метод сжатия : С потерями
Бит/(Пиксели*Кадры) : 0.222
Размер потока : 538 Мбайт (89%)
Библиотека кодирования : XviD 73
Аудио
Идентификатор : 1
Формат : AC-3
Формат/Информация : Audio Coding 3
Коммерческое название : Dolby Digital
Идентификатор кодека : 2000
Продолжительность : 47 м. 1 с.
Вид битрейта : Постоянный
Битрейт : 192 Кбит/сек
Каналы : 2 канала
ChannelLayout : L R
Частота : 48,0 КГц
Частота кадров : 31,250 кадров/сек (1536 SPF)
Битовая глубина : 16 бит
Метод сжатия : С потерями
Размер потока : 64,6 Мбайт (11%)
Выравнивание : Разделение по промежуткам
Продолжительность промежутка : 40 мс. (1,00 видеокадр)
Время предзагрузки промежутка : 500 мс.
ServiceKind/String : Complete Main
-

Скриншоты

-Предыдущие и альтернативные раздачи
[cybertorrent.net].t2458.torrent 
Торрент: Зарегистрирован [ 2019-05-02 17:09 ] · 79BE009D891EC4C30C997984639506EE84179626

Скачать .torrent

Скачать

13 KB

Статус: проверено
Скачан: 0 раз
Размер: 2,4 GB
terms.php
Показать сообщения:    

Текущее время: 23-Ноя 02:15

Часовой пояс: UTC ± 0



Вы не можете начинать темы
Вы не можете отвечать на сообщения
Вы не можете редактировать свои сообщения
Вы не можете удалять свои сообщения
Вы не можете голосовать в опросах
Вы не можете прикреплять файлы к сообщениям
Вы можете скачивать файлы