Статистика раздачи
Размер:  1,46 GB   |    Зарегистрирован:  6 месяцев 11 дней   |    Скачан:  0 раз
Сидов:  5  [  0 KB/s  ]   Личеров:  3  [  0 KB/s  ]  
 
     
 
 

солнышко ®

Пол:
Не указан
Стаж:
8 месяцев 1 день
Сообщений:
565

Мальчик по имени Парусник / A Boy Called Sailboat
Страна: США, Австралия
Жанр: драма, комедия, семейный
Год выпуска: 2018
Продолжительность: 01:26:26-Перевод: Любительский (многоголосый закадровый) | HDRezka Studio
Субтитры: нет
Оригинальная аудиодорожка: нет-Режиссер: Камерон Наджент / Cameron Nugent-В ролях: Дж. К. Симмонс, Джейк Бьюзи, Ноэль Гульеми, Лью Темпл, Бернард Керри, Лиза Де Радзо, Ник Фарнелл, Миранда Скерман, Патриция Калиш, Аддам Брамич-Описание: Мальчик по имени Парусник живет в небольшом доме посреди пустыни на границе с Техасом вместе с родителями. Его отец Хосе мечтает о лошадях и револьверах, но вынужден следить за "палкой" — деревянной опорой, окрашенной в цвета мексиканского флага, которая не дает их дому упасть. Мать Мейо обычно сидит дома и готовит для всей семьи, а лучший друг Пити учит его играть в футбол. Парусник проводит свои дни в школе, дома или в Оазисе — автомобильной стоянке, которой управляет Эрнест. Однажды паренёк находит гавайскую гитару в груде мусора на обочине дороги и забирает её с собой. Когда он навещает бабушку в больнице, та просит внука написать песню, на что Парусник отвечает согласием, и с этого момента его жизнь меняется навсегда.- -Качество видео: WEB-DLRip
Формат видео: AVI
Видео: 704x384 (1.83:1), 23.976 fps, XviD build 73 ~2209 kbps avg, 0.34 bit/pixel
Аудио: 48 kHz, AC3 Dolby Digital, 2/0 (L,R) ch, ~192 kbps-[box]Сэмпл[/box]-

MediaInfo

Код:Формат : AVI
Формат/Информация : Audio Video Interleave
Размер файла : 1,46 Гбайт
Продолжительность : 1 ч. 26 м.
Общий поток : 2411 Кбит/сек
Программа кодирования : VirtualDubMod 1.5.10.3 | www.virtualdub-fr.org || (build 2550/release)
Библиотека кодирования : VirtualDubMod build 2550/release
Видео
Идентификатор : 0
Формат : MPEG-4 Visual
Профиль формата : Advanced Simple@L5
Настройки формата : BVOP1 / Custom Matrix
Параметр BVOP формата : 1
Параметр QPel формата : Нет
Параметр GMC формата : Без точки перехода
Параметр матрицы формата : Выборочная
Идентификатор кодека : XVID
Идентификатор кодека/Подсказка : XviD
Продолжительность : 1 ч. 26 м.
Битрейт : 2209 Кбит/сек
Ширина : 704 пикселя
Высота : 384 пикселя
Соотношение сторон : 1,85:1
Частота кадров : 23,976 (24000/1001) кадра/сек
Цветовое пространство : YUV
Субдискретизация насыщенности : 4:2:0
Битовая глубина : 8 бит
Тип развёртки : Прогрессивная
Метод сжатия : С потерями
Бит/(Пиксели*Кадры) : 0.341
Размер потока : 1,33 Гбайт (92%)
Библиотека кодирования : XviD 73
Аудио
Идентификатор : 1
Формат : AC-3
Формат/Информация : Audio Coding 3
Коммерческое название : Dolby Digital
Идентификатор кодека : 2000
Продолжительность : 1 ч. 26 м.
Вид битрейта : Постоянный
Битрейт : 192 Кбит/сек
Каналы : 2 канала
ChannelLayout : L R
Частота : 48,0 КГц
Частота кадров : 31,250 кадров/сек (1536 SPF)
Битовая глубина : 16 бит
Метод сжатия : С потерями
Размер потока : 119 Мбайт (8%)
Выравнивание : Разделение по промежуткам
Продолжительность промежутка : 42 мс. (1,00 видеокадр)
Время предзагрузки промежутка : 500 мс.
ServiceKind/String : Complete Main

Скриншоты


[cybertorrent.net].t2453.torrent 
Торрент: Зарегистрирован [ 2019-05-02 17:09 ] · 8E5B13306C91FAB70B2675ACA31576CB0C070F5E

Скачать .torrent

Скачать

15 KB

Статус: проверено
Скачан: 0 раз
Размер: 1,46 GB
terms.php
Профиль ЛС
Показать сообщения:    

Текущее время: 13-Ноя 18:04

Часовой пояс: UTC ± 0



Вы не можете начинать темы
Вы не можете отвечать на сообщения
Вы не можете редактировать свои сообщения
Вы не можете удалять свои сообщения
Вы не можете голосовать в опросах
Вы не можете прикреплять файлы к сообщениям
Вы можете скачивать файлы