Статистика раздачи
Размер:  141 MB   |    Зарегистрирован:  6 месяцев 20 дней   |    Скачан:  0 раз

Полного источника не было: Никогда

 
     
 
 

Гость ®

Пол:
Не указан

Мальчик и птица
Страна: СССР (Белорусская республика)
Жанр: мультфильм
Продолжительность: 00:09:24
Год выпуска: 1973
Русские субтитры: нет
Режиссёр: Владимир Пименов
Описание: Образный лирический сюжет о том, как мальчик учится понимать окружающую красоту.
Качество: WEBRip
Формат: AVI
Видео: 1990 kbps, 720х528 (16:9), 25.000 fps, MPEG-4 Visual (XviD)
Аудио: 96 kbps, 44.1 kHz, 1 channel, MPEG Audio (MP3)
Субтитры: отсутствуют

Подробные технические данные

General
Complete name : Мальчик и птица (1973).avi
Format : AVI
Format/Info : Audio Video Interleave
File size : 141 MiB
Duration : 9mn 24s
Overall bit rate : 2 096 Kbps
Writing application : VirtualDubMod 1.5.10.3 | www.virtualdub-fr.org || (build 2550/release)
Writing library : VirtualDub build 35491/release
Video
ID : 0
Format : MPEG-4 Visual
Format profile : Advanced Simple@L5
Format settings, BVOP : 2
Format settings, QPel : No
Format settings, GMC : No warppoints
Format settings, Matrix : Default (H.263)
Codec ID : XVID
Codec ID/Hint : XviD
Duration : 9mn 24s
Bit rate : 1 990 Kbps
Width : 720 pixels
Height : 528 pixels
Display aspect ratio : 4:3
Frame rate : 25.000 fps
Color space : YUV
Chroma subsampling : 4:2:0
Bit depth : 8 bits
Scan type : Progressive
Compression mode : Lossy
Bits/(Pixel*Frame) : 0.209
Stream size : 134 MiB (95%)
Writing library : XviD 73
Audio
ID : 1
Format : MPEG Audio
Format version : Version 1
Format profile : Layer 3
Codec ID : 55
Codec ID/Hint : MP3
Duration : 9mn 24s
Bit rate mode : Constant
Bit rate : 96.0 Kbps
Channel(s) : 1 channel
Sampling rate : 48.0 KHz
Compression mode : Lossy
Stream size : 6.46 MiB (5%)
Alignment : Split accross interleaves
Interleave, duration : 40 ms (1.00 video frame)
Interleave, preload duration : 500 ms

Скриншоты

[cybertorrent.net].t2452.torrent 
Торрент: Зарегистрирован [ 2019-05-02 17:09 ] · E82EC25B3D91EE2826DFB2EB326739AF5B5ED591

Скачать .torrent

Скачать

12 KB

Статус: проверено
Скачан: 0 раз
Размер: 141 MB
terms.php
Показать сообщения:    

Текущее время: 23-Ноя 02:12

Часовой пояс: UTC ± 0



Вы не можете начинать темы
Вы не можете отвечать на сообщения
Вы не можете редактировать свои сообщения
Вы не можете удалять свои сообщения
Вы не можете голосовать в опросах
Вы не можете прикреплять файлы к сообщениям
Вы можете скачивать файлы