Статистика раздачи
Размер:  2,4 GB   |    Зарегистрирован:  6 месяцев 16 дней   |    Скачан:  0 раз

Полного источника не было: Никогда

 
     
 
 

Гость ®

Пол:
Не указан

Амнезия | Absentia- Год выпуска: 2019
Страна: США
Жанр: триллер, драма, криминал, детектив
Продолжительность: ~ 00:40:00
Перевод: Любительский (многоголосый закадровый) TVShows--Режиссёр: Одед Рускин
В ролях: Стана Катик, Патрик Хьюсингер, Кара Теоболд, Нил Джексон, Анхель Бунани, Бруно Бичир, Пол Фримен, Ралф Айнесон, Кристофер Колкухоун, Патрик МакОли и др.-Описание: Бесследно исчезает агент ФБР Эмили Бирн, которая расследует дело одного из самых известных серийных убийц Бостона. Шесть лет спустя её находят в заброшенном доме. Эмили почти ничего не помнит о времени, проведённом в заточении. Героиня ищет разгадку тайны своего похищения и пытается снова соединиться со своей семьей, у которой теперь новая жизнь.--
Качество: HDTVRip
Формат: AVI
Видео: XVID, 720x400, 25.000 fps, ~2000 kbps avg, 0.27 bit/pixel
Аудио Rus: AC3, 48.0 KHz, 2 channels, 192 kbps
Субтитры: нет
Реклама отсутствует
Все раздачи сериала

MediaInfo

General
Complete name : G:\Амнезия (Сезон 2) TVShows\Absentia.S02E01.HDTVRip.RGzsRutracker.Celta88.avi
Format : AVI
Format/Info : Audio Video Interleave
File size : 638 MiB
Duration : 40 min 31 s
Overall bit rate : 2 202 kb/s
Writing application : VirtualDubMod 1.5.10.3 | www.virtualdub-fr.org || (build 2550/release)
Writing library : VirtualDubMod build 2550/release
Video
ID : 0
Format : MPEG-4 Visual
Format profile : Advanced Simple@L5
Format settings, BVOP : 1
Format settings, QPel : No
Format settings, GMC : No warppoints
Format settings, Matrix : Custom
Codec ID : XVID
Codec ID/Hint : XviD
Duration : 40 min 31 s
Bit rate : 2 000 kb/s
Width : 720 pixels
Height : 400 pixels
Display aspect ratio : 16:9
Frame rate : 25.000 FPS
Color space : YUV
Chroma subsampling : 4:2:0
Bit depth : 8 bits
Scan type : Progressive
Compression mode : Lossy
Bits/(Pixel*Frame) : 0.278
Stream size : 580 MiB (91%)
Writing library : XviD 73
Audio
ID : 1
Format : AC-3
Format/Info : Audio Coding 3
Mode extension : CM (complete main)
Format settings, Endianness : Big
Codec ID : 2000
Duration : 40 min 31 s
Bit rate mode : Constant
Bit rate : 192 kb/s
Channel(s) : 2 channels
Channel positions : Front: L R
Sampling rate : 48.0 kHz
Frame rate : 31.250 FPS (1536 spf)
Bit depth : 16 bits
Compression mode : Lossy
Stream size : 55.7 MiB (9%)
Alignment : Split accross interleaves
Interleave, duration : 40 ms (1.00 video frame)
Interleave, preload duratio : 500 ms

Скриншоты

Внимание! Раздача ведётся путём добавления новых серий!

Внимание! Раздача ведётся путём добавления новых серий; при каждом добавлении создаётся новый торрент.
Чтобы начать докачку новой серии, пользователям необходимо сделать следующее:

1. Остановить скачивание.
2. Удалить старый торрент у себя из клиента (старые серии удалять не надо).
3. Скачать новый торрент и запустить его у себя в клиенте вместо старого, при этом указать клиенту путь в старую папку куда и должно происходить скачивание новых серий.

Ваш клиент при этом должен произвести хеширование (проверку) старой папки (если не производит сам - помогите ему сделать это), и будет докачивать только те серии которых у вас ещё нет. Старые серии при этом не удаляются, а продолжают раздаваться!
Eсли вы уже удалили старые серии, то предотвратить повторную закачку старых серий можно, отжав галочку в соответсвующих местах при запуске нового торрента.
Релиз группы:
[cybertorrent.net].t2450.torrent 
Торрент: Зарегистрирован [ 2019-05-02 17:09 ] · 6DD72D4610CC2AC1EC4FA2E14569EADA22C07706

Скачать .torrent

Скачать

13 KB

Статус: проверено
Скачан: 0 раз
Размер: 2,4 GB
terms.php
Показать сообщения:    

Текущее время: 19-Ноя 03:45

Часовой пояс: UTC ± 0



Вы не можете начинать темы
Вы не можете отвечать на сообщения
Вы не можете редактировать свои сообщения
Вы не можете удалять свои сообщения
Вы не можете голосовать в опросах
Вы не можете прикреплять файлы к сообщениям
Вы можете скачивать файлы