Статистика раздачи
Размер:  10,4 GB   |    Зарегистрирован:  6 месяцев 10 дней   |    Скачан:  0 раз

Полного источника не было: Никогда

 
     
 
 

Гость ®

Пол:
Не указан

Кризис нежного возраста
Год выпуска: 2016
Производство: Россия, Кинокомпания «Магнум», ТНТ
Жанр: Мелодрама, комедия
Продолжительность: ~00:45:00 (одной серии)
Субтитры: нет
Режиссёр: Наталья Меркулова, Алексей Чупов
В ролях: Мария Поезжаева, Максим Виторган, Алиса Гребенщикова, Евгений Цыганов, Ксения Суркова, Кристина Исайкина, Екатерина Захарова, Александр Грашин, Руслан Ягудин, Никита Волков
Описание: Это история про трех лучших подруг: Шуру, Юлю и Аню. Им по 18 лет, все самое важное в жизни происходит у них в первый раз, и они подходят ко всему с юношеским рвением и максимализмом. Шура Ермакова влюбляется в преподавателя и в тот же день узнает, что в ее семью вернулась мама, которая бросила ее в детстве. Юля Кузьмина никак не может разорвать отношения со своим парнем-полицейским, который ей постоянно изменяет, а Аня Силкина, используя связи своего папы-продюсера, раз в неделю придумывает себе новую карьеру.
Реклама: Нет
Качество: WEBRip 1080p
Формат: MKV
Видео кодек: AVC
Аудио кодек: AC3
Видео: AVC, 1920x1080 (16:9), 25.000 fps, 4 003 kb/s (0.077 bit/pixel)
Аудио: AC-3, 48.0 kHz, 2 ch, 192 kb/s, CBR (Russian)
SAMPLE
Release от Nikolspup | Без рекламы, логотипа и всплывающих надписей
Предыдущие и альтернативные раздачи

MI

Общее
Уникальный идентификатор : 239181150802624714118242834075301984937 (0xB3F09D3224B532ABAD892046E0143AA9)
Полное имя : J:\video\Кризис нежного возраста (1 сезон, 1-8 серии из 8)[2016, WEB-DL 1080p]\Кризис нежного возраста (серия 02 из 08).mkv
Формат : Matroska
Версия формата : Version 4
Размер файла : 1,22 Гбайт
Продолжительность : 41 м. 38 с.
Режим общего битрейта : Переменный
Общий поток : 4190 Кбит/сек
Дата кодирования : UTC 2018-05-28 14:22:04
Программа кодирования : mkvmerge v7.8.0 ('River Man') 32bit built on Mar 27 2015 16:18:02
Библиотека кодирования : libebml v1.3.1 + libmatroska v1.4.2
Видео
Идентификатор : 1
Формат : AVC
Формат/Информация : Advanced Video Codec
Профиль формата : High@L4
Настройки формата : CABAC / 3 Ref Frames
Параметр CABAC формата : Да
Параметр RefFrames формата : 3 кадра
Параметр GOP формата : M=1, N=15
Идентификатор кодека : V_MPEG4/ISO/AVC
Продолжительность : 41 м. 38 с.
Вид битрейта : Переменный
Битрейт : 3996 Кбит/сек
Максимальный битрейт : 40,0 Мбит/сек
Ширина : 1920 пикселей
Высота : 1080 пикселей
Соотношение сторон : 16:9
Режим частоты кадров : Постоянный
Частота кадров : 25,000 кадров/сек
Цветовое пространство : YUV
Субдискретизация насыщенности : 4:2:0
Битовая глубина : 8 бит
Тип развёртки : Прогрессивная
Бит/(Пиксели*Кадры) : 0.077
Размер потока : 1,16 Гбайт (95%)
Default : Да
Forced : Нет
Цветовой диапазон : Limited
Основные цвета : BT.709
Характеристики трансфера : BT.709
Коэффициенты матрицы : BT.709
Аудио
Идентификатор : 2
Формат : AC-3
Формат/Информация : Audio Coding 3
Коммерческое название : Dolby Digital
Идентификатор кодека : A_AC3
Продолжительность : 41 м. 38 с.
Вид битрейта : Постоянный
Битрейт : 192 Кбит/сек
Каналы : 2 канала
Channel layout : L R
Частота : 48,0 КГц
Частота кадров : 31,250 кадров/сек (1536 SPF)
Битовая глубина : 16 бит
Метод сжатия : С потерями
Размер потока : 57,2 Мбайт (5%)
Язык : Russian
ServiceKind/String : Complete Main
Default : Да
Forced : Нет

Скриншоты


[cybertorrent.net].t2445.torrent 
Торрент: Зарегистрирован [ 2019-05-02 17:09 ] · C975ADCE464E0E1DE21CAD948EB7186D8F90C2F4

Скачать .torrent

Скачать

53 KB

Статус: проверено
Скачан: 0 раз
Размер: 10,4 GB
terms.php
Показать сообщения:    

Текущее время: 13-Ноя 00:05

Часовой пояс: UTC ± 0



Вы не можете начинать темы
Вы не можете отвечать на сообщения
Вы не можете редактировать свои сообщения
Вы не можете удалять свои сообщения
Вы не можете голосовать в опросах
Вы не можете прикреплять файлы к сообщениям
Вы можете скачивать файлы