Статистика раздачи
Размер:  1,46 GB   |    Зарегистрирован:  6 месяцев 11 дней   |    Скачан:  0 раз
Сидов:  36  [  0 KB/s  ]   Личеров:  2  [  0 KB/s  ]  
 
     
 
 

Гость ®

Пол:
Не указан

Проклятые / Письмо смерти / BOO!
Страна: США
Жанр: ужасы, триллер, драма, детектив
Год выпуска: 2019
Продолжительность: 01:30:27-Перевод: Любительский (многоголосый закадровый) | HDRezka Studio
Субтитры: нет
Оригинальная аудиодорожка: нет-Режиссер: Люк Джейден Савицки / Luke Jaden-В ролях: Аврора Перрино, Джейден Пайнер, Джилл Мари Джонс, Роб Забрески, Чарли Палмер Ротуэлл, Рувим Блюменштейн, Каден Бросовски, Дуайт Генри, Энтони Курковски, Феликс Маккарти-Описание: Хэллоуин — время для забавных переодеваний, застолий и безобидных страхов. Но только в том случае, если вы не стали жертвой «Бу!».«Бу!» — это поверье, согласно которому, человек, получивший «письмо ужаса», должен сразу же переправить его другому. В противном случае несчастного начинают преследовать темные силы, способные довести до безумия. Однажды хэллоуинским утром Джеймс обнаружил такое письмо на пороге своего дома. Глупостями вроде историй о призраках ему заниматься было некогда, и он, не долго думая, послание сжег. Чем привел в ужас жену, дочь и сына, которые верили в силу «Бу!» И оказались правы. Потому что этой же ночью каждому члену семьи предстояло пережить свой персональный ад…-Качество видео: WEB-DLRip
Формат видео: AVI
Видео: 720x384 (1.88:1), 24.000 fps, XviD build 73 ~2103 kbps avg, 0.32 bit/pixel
Аудио: 48 kHz, AC3 Dolby Digital, 2/0 (L,R) ch, ~192 kbps-[box]Сэмпл[/box]-

MediaInfo

Код:Формат : AVI
Формат/Информация : Audio Video Interleave
Размер файла : 1,46 Гбайт
Продолжительность : 1 ч. 30 м.
Общий поток : 2305 Кбит/сек
Программа кодирования : VirtualDubMod 1.5.10.3 | www.virtualdub-fr.org || (build 2550/release)
Библиотека кодирования : VirtualDubMod build 2550/release
Видео
Идентификатор : 0
Формат : MPEG-4 Visual
Профиль формата : Advanced Simple@L5
Настройки формата : BVOP1 / Custom Matrix
Параметр BVOP формата : 1
Параметр QPel формата : Нет
Параметр GMC формата : Без точки перехода
Параметр матрицы формата : Выборочная
Идентификатор кодека : XVID
Идентификатор кодека/Подсказка : XviD
Продолжительность : 1 ч. 30 м.
Битрейт : 2104 Кбит/сек
Ширина : 720 пикселей
Высота : 384 пикселя
Соотношение сторон : 1,85:1
Частота кадров : 24,000 кадра/сек
Цветовое пространство : YUV
Субдискретизация насыщенности : 4:2:0
Битовая глубина : 8 бит
Тип развёртки : Прогрессивная
Метод сжатия : С потерями
Бит/(Пиксели*Кадры) : 0.317
Размер потока : 1,33 Гбайт (91%)
Библиотека кодирования : XviD 73
Аудио
Идентификатор : 1
Формат : AC-3
Формат/Информация : Audio Coding 3
Коммерческое название : Dolby Digital
Идентификатор кодека : 2000
Продолжительность : 1 ч. 30 м.
Вид битрейта : Постоянный
Битрейт : 192 Кбит/сек
Каналы : 2 канала
ChannelLayout : L R
Частота : 48,0 КГц
Частота кадров : 31,250 кадров/сек (1536 SPF)
Битовая глубина : 16 бит
Метод сжатия : С потерями
Размер потока : 124 Мбайт (8%)
Выравнивание : Разделение по промежуткам
Продолжительность промежутка : 42 мс. (1,00 видеокадр)
Время предзагрузки промежутка : 500 мс.
ServiceKind/String : Complete Main

Скриншоты


[cybertorrent.net].t2444.torrent 
Торрент: Зарегистрирован [ 2019-05-02 17:09 ] · D280F97499FDBF3037E9AF370C11C177047D8061

Скачать .torrent

Скачать

15 KB

Статус: проверено
Скачан: 0 раз
Размер: 1,46 GB
terms.php
Показать сообщения:    

Текущее время: 14-Ноя 09:24

Часовой пояс: UTC ± 0



Вы не можете начинать темы
Вы не можете отвечать на сообщения
Вы не можете редактировать свои сообщения
Вы не можете удалять свои сообщения
Вы не можете голосовать в опросах
Вы не можете прикреплять файлы к сообщениям
Вы можете скачивать файлы