Статистика раздачи
Размер:  146 MB   |    Зарегистрирован:  7 месяцев 9 дней   |    Скачан:  0 раз

Полного источника не было: Никогда

 
     
 
 

Гость ®

Пол:
Не указан

Звёздный ослик
Страна: Россия
Жанр: мультфильм
Продолжительность: 00:15:06
Год выпуска: 2014
Русские субтитры: нет
Режиссёр: Антон Дьяков
Описание: Маленький лопоухий ослик обнаруживает посреди степи большой металлический шар, из которого вскоре появляется человек в скафандре...
Качество: WEBRip-AVC
Формат: MP4
Видео: 1226 kbps, 1280х720 (16:9), 25.000 fps, AVC (High@L3.1)
Аудио: 126 kbps, 44.1 kHz, 2 channels, AAC (LC)
Субтитры: отсутствуют

Подробные технические данные

General
Complete name : Звёздный ослик (2014).mp4
Format : MPEG-4
Format profile : Base Media / Version 2
Codec ID : mp42
File size : 146 MiB
Duration : 15mn 6s
Overall bit rate mode : Variable
Overall bit rate : 1 355 Kbps
Encoded date : UTC 2016-10-20 13:23:04
Tagged date : UTC 2016-10-20 13:23:04
gsst : 0
gstd : 906808
Video
ID : 1
Format : AVC
Format/Info : Advanced Video Codec
Format profile : Main@L3.1
Format settings, CABAC : Yes
Format settings, ReFrames : 3 frames
Codec ID : avc1
Codec ID/Info : Advanced Video Coding
Duration : 15mn 6s
Bit rate : 1 226 Kbps
Width : 1 280 pixels
Height : 720 pixels
Display aspect ratio : 16:9
Frame rate mode : Constant
Frame rate : 25.000 fps
Color space : YUV
Chroma subsampling : 4:2:0
Bit depth : 8 bits
Scan type : Progressive
Bits/(Pixel*Frame) : 0.053
Stream size : 133 MiB (90%)
Title : ISO Media file produced by Google Inc.
Encoded date : UTC 2016-10-20 13:23:04
Tagged date : UTC 2016-10-20 13:23:04
Color primaries : BT.709
Transfer characteristics : BT.709
Matrix coefficients : BT.709
Audio
ID : 2
Format : AAC
Format/Info : Advanced Audio Codec
Format profile : LC
Codec ID : 40
Duration : 15mn 6s
Bit rate mode : Variable
Bit rate : 126 Kbps
Channel(s) : 2 channels
Channel positions : Front: L R
Sampling rate : 44.1 KHz
Compression mode : Lossy
Stream size : 13.6 MiB (9%)
Title : ISO Media file produced by Google Inc.
Encoded date : UTC 2016-10-20 13:23:04
Tagged date : UTC 2016-10-20 13:23:04

Скриншоты

[cybertorrent.net].t2442.torrent 
Торрент: Зарегистрирован [ 2019-05-02 17:09 ] · CE898C8BB0249889E776442A0B0526B394C46D72

Скачать .torrent

Скачать

12 KB

Статус: проверено
Скачан: 0 раз
Размер: 146 MB
terms.php
Показать сообщения:    

Текущее время: 12-Дек 04:57

Часовой пояс: UTC ± 0



Вы не можете начинать темы
Вы не можете отвечать на сообщения
Вы не можете редактировать свои сообщения
Вы не можете удалять свои сообщения
Вы не можете голосовать в опросах
Вы не можете прикреплять файлы к сообщениям
Вы можете скачивать файлы