Статистика раздачи
Размер:  1,1 GB   |    Зарегистрирован:  7 месяцев 30 дней   |    Скачан:  0 раз

Полного источника не было: Никогда

 
     
 
 

Гость ®

Пол:
Не указан

Боярышник Жанр: драма
Студия: Казахфильм
Продолжительность: 01:04:56
Год выпуска: 1981
Перевод: Профессиональный (дублированный)-Режиссёр: Мурат Омаров
В ролях: Нуржуман Ихтимбаев, Мейрман Нурекеев, Тамара Косубаева, Раиса Мухамедьярова, С. Абулгазин, А. Мусабекова, Есболган Жайсанбаев, Алимгазы Райнбеков, Мулюк Суртубаев-Описание: О советском человеке, его честности, непримиримости со злом. По мотивам рассказа О. Сарсенбаева «Спи спокойно, ревизор».-
Семпл: https://www.sendspace.com/file/h6trnw-Качество: DVB [Ел Арна] (эфир 28.01.2019)
Формат: TS
Видео: AVC, 720x576 (16:9) @ 1047x576, 25 fps, ~2111 kbps, 0.204 bit/pixel
Аудио: [RUS] MP2, 48 kHz, 2 ch, 192 kbps

Mediainfo

General
ID : 1 (0x1)
Complete name : H:\Раздачи\Боярышник (1981) [Ел Арна].ts
Format : MPEG-TS
File size : 1.10 GiB
Duration : 1 h 4 min
Overall bit rate mode : Variable
Overall bit rate : 2 424 kb/s
Video
ID : 67 (0x43)
Menu ID : 1 (0x1)
Format : AVC
Format/Info : Advanced Video Codec
Format profile : High@L3
Format settings : CABAC / 3 Ref Frames
Format settings, CABAC : Yes
Format settings, ReFrames : 3 frames
Codec ID : 27
Duration : 1 h 4 min
Bit rate : 2 111 kb/s
Width : 720 pixels
Height : 576 pixels
Display aspect ratio : 16:9
Frame rate : 25.000 FPS
Standard : Component
Color space : YUV
Chroma subsampling : 4:2:0
Bit depth : 8 bits
Scan type : Interlaced
Scan type, store method : Separated fields
Scan order : Top Field First
Bits/(Pixel*Frame) : 0.204
Stream size : 980 MiB (87%)
Color range : Limited
Color primaries : BT.601 PAL
Transfer characteristics : BT.470 System B/G
Matrix coefficients : BT.470 System B/G
Audio
ID : 68 (0x44)
Menu ID : 1 (0x1)
Format : MPEG Audio
Format version : Version 1
Format profile : Layer 2
Codec ID : 3
Duration : 1 h 4 min
Bit rate mode : Constant
Bit rate : 192 kb/s
Channel(s) : 2 channels
Sampling rate : 48.0 kHz
Frame rate : 41.667 FPS (1152 SPF)
Compression mode : Lossy
Delay relative to video : -40 ms
Stream size : 89.2 MiB (8%)
Language : English

Скриншоты

[cybertorrent.net].t243.torrent 
Торрент: Зарегистрирован [ 2019-03-18 10:04 ] · 69C6404E56CD289F96C3F366CF7C4C81FE2A8A37

Скачать .torrent

Скачать

11 KB

Статус: проверено
Скачан: 0 раз
Размер: 1,1 GB
terms.php
Показать сообщения:    

Текущее время: 17-Ноя 15:39

Часовой пояс: UTC ± 0



Вы не можете начинать темы
Вы не можете отвечать на сообщения
Вы не можете редактировать свои сообщения
Вы не можете удалять свои сообщения
Вы не можете голосовать в опросах
Вы не можете прикреплять файлы к сообщениям
Вы можете скачивать файлы