Статистика раздачи
Размер:  2,13 GB   |    Зарегистрирован:  6 месяцев 12 дней   |    Скачан:  1 раз

Полного источника не было: 2 дня 14 часов

 
     
 
 

солнышко ®

Пол:
Не указан
Стаж:
8 месяцев 1 день
Сообщений:
565

Бумеранг
Boomerang- Страна: Швейцария, Бельгия
Жанр: трагикомедия, социальная сатира
Год выпуска: 2018
Продолжительность: 01:32:23Перевод: Субтитры (русский перевод компании Hiventy)
Субтитры: русские, английские, французские, французские-телетекст, немецкие, нидерландские, румынские, испанские
Оригинальная аудиодорожка: французский/курдский
Режиссер: Николь Боржа / Nicole Borgeat
В ролях: Марлен Салдана / Marlene Saldana (Berivan Xani), Гийом Кербуш / Guillaume Kerbusch (Théo Bottéron), Зое Шелленберг / Zoé Schellenberg (Solène de Diesbach), Давид Камменос / David Kammenos (Ferhat Xani), Пейан Исса / Peyam Issa (Zoran Xani), Мина Гассаби / Mina Ghassabi (Lilav Xani), Гаспар Беш / Gaspard Boesch (Castella), Анна Пьери / Anna Pieri (Marjorie Dubouloz)
Описание: Тео Боттерон - молодой, высокомерный, амбициозный и ксенофобский политик. Бериван - горничная в его офисе, курдка по национальности, беженка. После несчастного случая на работе они приходят в себя в больнице и обнаруживают, что поменялись телами. С этого момента для обоих жизнь становится кошмаром. Тео вынужден жить в женском теле в общежитии для беженцев вместе с мужем Бериван и ее детьми, а Бериван в мужском теле вынуждена вести ксенофобскую политическую кампанию за Тео...
Доп. информация: Hot Bird (13.0°E) TV5MONDE Europe DVB-S
Участник Solothurner Filmtage 2018.
Качество видео: DVB
Формат видео: MKV
Видео: MPEG Video 2, 720x576@1024x576 (16:9), 25 fps, ~3041 kbps avg, 0.293 bit/pixel
Аудио: MPEG Audio 2, 2 ch, 48 kHz, 192 kbps - французский/курдский
Формат субтитров: softsub (SRT), hardsub (неотключаемые) - французские форсированные на курдскую речь

Пример субтитров

1
00:01:41,409 --> 00:01:44,409
Вперед к победе!
2
00:01:50,885 --> 00:01:52,885
БУМЕРАНГ
3
00:01:56,004 --> 00:01:58,629
Тео Боттерон.
4
00:02:02,735 --> 00:02:04,772
31 голос.
5
00:02:04,772 --> 00:02:06,605
Кандидат
в кантональный совет:
6
00:02:06,605 --> 00:02:09,230
Тео Боттерон.
7
00:02:09,887 --> 00:02:11,644
Лакура.
8
00:02:11,644 --> 00:02:14,144
Робе Бокнеж.
9
00:02:14,456 --> 00:02:17,206
Фредерик Бики.
10
00:02:17,886 --> 00:02:19,726
Как председатель партии
11
00:02:19,726 --> 00:02:22,132
благодарю представителей округа
12
00:02:22,132 --> 00:02:24,572
и поздравляю
выбранных кандидатов.
13
00:02:24,572 --> 00:02:26,362
Особенно
14
00:02:26,362 --> 00:02:30,970
Тео Боттерона, первого в списке
и самого молодого из всех.
15
00:02:30,970 --> 00:02:32,570
-Спасибо.
-Браво!
16
00:02:32,570 --> 00:02:34,070
Ура!
17
00:02:37,165 --> 00:02:38,573
Спасибо, что не побоялись
18
00:02:38,573 --> 00:02:41,329
проголосовать за того,
кто говорит, что думает.
19
00:02:41,329 --> 00:02:44,045
Хотя сегодня тех,
кто не закрывает глаза на правду,
20
00:02:44,045 --> 00:02:47,327
называют
провокаторами.

MediaInfo

General
Unique ID : 226595384142306113784036918159425843328 (0xAA78AEFDA789627D031E5CF7DB36B080)
Complete name : [apreder]Boomerang(2018)DVB.mkv
Format : Matroska
Format version : Version 2
File size : 2.13 GiB
Duration : 1 h 32 min
Overall bit rate mode : Variable
Overall bit rate : 3 299 kb/s
Movie name : Boomerang
Released date : 2018-02-07
Encoded date : UTC 2019-05-01 13:43:07
Writing application : mkvmerge v33.1.0 ('Primrose') 64-bit
Writing library : libebml v1.3.7 + libmatroska v1.5.0
Cover : Yes
Attachments : cover.jpg / small_cover.jpg
ACTOR : Marlene Saldana, Guillaume Kerbusch, Zoe Schellenberg
DIRECTOR : Nicole Borgeat
GENRE : Comedy
IMDB : tt8027144
KEYWORDS : rutracker.org
LAW_RATING : 16+
Video
ID : 1
Format : MPEG Video
Format version : Version 2
Format profile : Main@Main
Format settings : CustomMatrix / BVOP
Format settings, BVOP : Yes
Format settings, Matrix : Custom
Format settings, GOP : Variable
Format settings, picture structure : Frame
Codec ID : V_MPEG2
Codec ID/Info : MPEG 1 or 2 Video
Duration : 1 h 32 min
Bit rate mode : Variable
Bit rate : 3 041 kb/s
Maximum bit rate : 15.0 Mb/s
Width : 720 pixels
Height : 576 pixels
Display aspect ratio : 16:9
Active Format Description : Letterbox 16:9 image
Frame rate mode : Constant
Frame rate : 25.000 FPS
Standard : PAL
Color space : YUV
Chroma subsampling : 4:2:0
Bit depth : 8 bits
Scan type : Interlaced
Scan order : Top Field First
Compression mode : Lossy
Bits/(Pixel*Frame) : 0.293
Stream size : 1.96 GiB (92%)
Default : Yes
Forced : No
Audio
ID : 2
Format : MPEG Audio
Format version : Version 1
Format profile : Layer 2
Codec ID : A_MPEG/L2
Codec ID/Hint : MP2
Duration : 1 h 32 min
Bit rate mode : Constant
Bit rate : 192 kb/s
Channel(s) : 2 channels
Sampling rate : 48.0 kHz
Compression mode : Lossy
Stream size : 127 MiB (6%)
Language : French
Default : Yes
Forced : No
Text #1
ID : 3
Format : UTF-8
Codec ID : S_TEXT/UTF8
Codec ID/Info : UTF-8 Plain Text
Language : Russian
Default : No
Forced : No
Text #2
ID : 4
Format : UTF-8
Codec ID : S_TEXT/UTF8
Codec ID/Info : UTF-8 Plain Text
Language : English
Default : No
Forced : No
Text #3
ID : 5
Format : UTF-8
Codec ID : S_TEXT/UTF8
Codec ID/Info : UTF-8 Plain Text
Language : French
Default : No
Forced : No
Text #4
ID : 6
Format : UTF-8
Codec ID : S_TEXT/UTF8
Codec ID/Info : UTF-8 Plain Text
Title : Teletexte
Language : French
Default : No
Forced : No
Text #5
ID : 7
Format : UTF-8
Codec ID : S_TEXT/UTF8
Codec ID/Info : UTF-8 Plain Text
Language : German
Default : No
Forced : No
Text #6
ID : 8
Format : UTF-8
Codec ID : S_TEXT/UTF8
Codec ID/Info : UTF-8 Plain Text
Language : Dutch
Default : No
Forced : No
Text #7
ID : 9
Format : UTF-8
Codec ID : S_TEXT/UTF8
Codec ID/Info : UTF-8 Plain Text
Language : rom
Default : No
Forced : No
Text #8
ID : 10
Format : UTF-8
Codec ID : S_TEXT/UTF8
Codec ID/Info : UTF-8 Plain Text
Language : Spanish
Default : No
Forced : No

Скриншот c названием фильма

Скриншоты


Резервные скриншоты


- [4'560]
[cybertorrent.net].t2428.torrent 
Торрент: Зарегистрирован [ 2019-05-01 16:45 ] · 8B22E7CEF45957D874B376C7361ECAF03F6D28C2

Скачать .torrent

Скачать

22 KB

Статус: проверено
Скачан: 1 раз
Размер: 2,13 GB
terms.php
Профиль ЛС
Показать сообщения:    

Текущее время: 14-Ноя 07:12

Часовой пояс: UTC ± 0



Вы не можете начинать темы
Вы не можете отвечать на сообщения
Вы не можете редактировать свои сообщения
Вы не можете удалять свои сообщения
Вы не можете голосовать в опросах
Вы не можете прикреплять файлы к сообщениям
Вы можете скачивать файлы