Статистика раздачи
Размер:  2,32 GB   |    Зарегистрирован:  7 месяцев 8 дней   |    Скачан:  0 раз
Сидов:  7  [  0 KB/s  ]  
 
     
 
 

Гость ®

Пол:
Не указан

Соседи
Год выпуска: 2019
Производство: Мостелефильм
Жанр: комедия, мелодрама
Продолжительность: ~00:45:00 серия
Субтитры: нет
Режиссёр: Владимир Виноградов
В ролях: Евгений Сидихин, Елена Валюшкина, Владимир Тимофеев, Юлия Ауг, Константин Чепурин, Михаил Васьков, Александр Семчев, Евгений Серов, Юлия Томашевская, Константин Белошапка, Дарья Семёнова, Наталья Тетенова, Андрей Тартаков, Юлия Серина, Михаил Парыгин, Ирина Лазарева, Александр Пальчиков, Раиса Пащенко, Александр Семикопенко, Семён Фурман, Лариса Негреева-Цесляк, Вячеслав Манучаров, Любовь Зайцева, Константин Быков
Описание: Война между Кораблевыми и Ширшиковыми продолжается. Отставной пилот Олег Кораблев и бывший совхозный тракторист Николай Ширшиков погрязли во взаимных обидах и изо всех сил пытаются испортить друг другу жизнь. Жены не отстают от своих мужей. Кажется, этой войне не будет конца. Лишь появление в Колотилово нового жителя, господина Щукина в компании обворожительной жены, приводит к тому, что Кораблевы и Ширшиковы вынуждены объединиться в борьбе с общим врагом.

Реклама: Нет.
Кинопоиск
Все раздачи сериала
Sample
Качество: WEBRip - Files-x
Формат: AVI
Видео кодек: XviD
Аудио кодек: AC3
Видео: 720x400 (1.80:1), 25 fps, XviD ~1600 kbps avg, 0.222 bit/pixel
Аудио: 48.0 kHz, AC3 Dolby Digital, 2/0 (L,R) ch, ~ 192 kbps

MI

General
Complete name : D:\Соседи-3. 2019.WEB-DLRip. Files-x\01. Соседи-3. 2019.WEB-DLRip. Files-x.avi
Format : AVI
Format/Info : Audio Video Interleave
File size : 1.16 GiB
Duration : 1 h 32 min
Overall bit rate : 1 801 kb/s
Writing application : VirtualDubMod 1.5.10.3 | www.virtualdub-fr.org || (build 2550/release)
Writing library : VirtualDubMod build 2550/release
Video
ID : 0
Format : MPEG-4 Visual
Format profile : Advanced Simple@L5
Format settings : BVOP1 / Custom Matrix
Format settings, BVOP : 1
Format settings, QPel : No
Format settings, GMC : No warppoints
Format settings, Matrix : Custom
Codec ID : XVID
Codec ID/Hint : XviD
Duration : 1 h 32 min
Bit rate : 1 599 kb/s
Width : 720 pixels
Height : 400 pixels
Display aspect ratio : 16:9
Frame rate : 25.000 FPS
Color space : YUV
Chroma subsampling : 4:2:0
Bit depth : 8 bits
Scan type : Progressive
Compression mode : Lossy
Bits/(Pixel*Frame) : 0.222
Stream size : 1.03 GiB (89%)
Writing library : XviD 73
Audio
ID : 1
Format : AC-3
Format/Info : Audio Coding 3
Codec ID : 2000
Duration : 1 h 32 min
Bit rate mode : Constant
Bit rate : 192 kb/s
Channel(s) : 2 channels
Channel positions : Front: L R
Sampling rate : 48.0 kHz
Frame rate : 31.250 FPS (1536 SPF)
Bit depth : 16 bits
Compression mode : Lossy
Stream size : 127 MiB (11%)
Alignment : Split accross interleaves
Interleave, duration : 40 ms (1.00 video frame)
Interleave, preload duratio : 500 ms
Service kind : Complete Main

Скриншоты


[cybertorrent.net].t2427.torrent 
Торрент: Зарегистрирован [ 2019-05-01 16:45 ] · 4DA0C447689DCEAF31B94DC183A3B796573F353D

Скачать .torrent

Скачать

12 KB

Статус: проверено
Скачан: 0 раз
Размер: 2,32 GB
terms.php
Показать сообщения:    

Текущее время: 10-Дек 09:10

Часовой пояс: UTC ± 0



Вы не можете начинать темы
Вы не можете отвечать на сообщения
Вы не можете редактировать свои сообщения
Вы не можете удалять свои сообщения
Вы не можете голосовать в опросах
Вы не можете прикреплять файлы к сообщениям
Вы можете скачивать файлы