Статистика раздачи
Размер:  2,88 GB   |    Зарегистрирован:  6 месяцев 19 дней   |    Скачан:  0 раз

Полного источника не было: Никогда

 
     
 
 

serzh ®

Пол:
Не указан
Стаж:
8 месяцев 8 дней
Сообщений:
384

Север / The North / El Norte- Страна: США, Великобритания
Жанр: триллер, драма, приключения
Год выпуска: 1983
Продолжительность: 02:20:55
Перевод: Одноголосый закадровый Воротилин
Субтитры: русские interdude, английские SDH
Оригинальная аудиодорожка: испанский
Режиссер: Грегори Нава / Gregory Nava
В ролях: Эрнесто Гомес Крус, Давид Вильяльпандо, Сайде Сильвия Гутьеррес, Алисия дель Лаго, Майк Гомес, Хосе Мартин Руано, Стелья Кан, Эраклио Сепеда, Эмилио Гомес Осуна, Даниэль Лемус Валенсуэла, Родриго Пуэбла, Ёсаанди Наваррете Кан, Родольфо Де Александр
Описание: Главные герои — брат и сестра из Гватемалы, Энрике и Роса. Их отца убили за организацию забастовки рабочих — сборщиков фасоли. Детям приходится спасаться бегством от военных, они выносят тяготы нищеты, проявлений расизма, а потом предпринимают поездку в Лос-Анджелес.
Сэмпл: http://sendfile.su/1491922

Качество видео: BDRip-AVC (Север 1983 BDRemux [Criterion Collection])
Формат видео: MKV
Видео: x264, 736x414 (16:9) 23,976 fps, ~2537 kbps, 0,347 bit/pixel
Аудио 1: 48 kHz, AC3 Dolby Digital, 1/0 (C), ~192 kbps avg | Воротилин
Аудио 2: 48 kHz, AC3 Dolby Digital, 1/0 (C), ~192 kbps avg | Английский
Формат субтитров: softsub (SRT)

MediaInfo

General
Unique ID : 121402356002506637742951893466670371203 (0x5B553E473BCE2D432CB8CC51B2DF1183)
Format : Matroska
Format version : Version 4 / Version 2
File size : 2.88 GiB
Duration : 2h 20mn
Overall bit rate : 2 923 Kbps
Encoded date : UTC 2019-05-01 07:48:04
Writing application : mkvmerge v33.0.0 ('A Little Bit of Madness') 64-bit
Writing library : libebml v1.3.7 + libmatroska v1.5.0
Video #1
ID : 1
Format : AVC
Format/Info : Advanced Video Codec
Format profile : High@L4.1
Format settings, CABAC : Yes
Format settings, ReFrames : 10 frames
Codec ID : V_MPEG4/ISO/AVC
Duration : 2h 20mn
Bit rate : 2 537 Kbps
Width : 736 pixels
Height : 414 pixels
Display aspect ratio : 16:9
Frame rate mode : Constant
Frame rate : 23.976 (24000/1001) fps
Color space : YUV
Chroma subsampling : 4:2:0
Bit depth : 8 bits
Scan type : Progressive
Bits/(Pixel*Frame) : 0.347
Stream size : 2.50 GiB (87%)
Writing library : x264 core 157 r2935 545de2f
Encoding settings : cabac=1 / ref=10 / deblock=1:-3:-2 / analyse=0x3:0x133 / me=umh / subme=10 / psy=1 / psy_rd=1.00:0.00 / mixed_ref=1 / me_range=32 / chroma_me=1 / trellis=2 / 8x8dct=1 / cqm=0 / deadzone=21,11 / fast_pskip=0 / chroma_qp_offset=-2 / threads=6 / lookahead_threads=1 / sliced_threads=0 / nr=0 / decimate=1 / interlaced=0 / bluray_compat=0 / constrained_intra=0 / bframes=13 / b_pyramid=2 / b_adapt=2 / b_bias=0 / direct=1 / weightb=1 / open_gop=0 / weightp=2 / keyint=250 / keyint_min=23 / scenecut=40 / intra_refresh=0 / rc=crf / mbtree=0 / crf=19.9 / qcomp=0.65 / qpmin=0 / qpmax=69 / qpstep=4 / ip_ratio=1.40 / pb_ratio=1.30 / aq=3:0.90
Language : English
Default : Yes
Forced : No
Audio #2
ID : 2
Format : AC-3
Format/Info : Audio Coding 3
Mode extension : CM (complete main)
Format settings, Endianness : Big
Codec ID : A_AC3
Duration : 2h 20mn
Bit rate mode : Constant
Bit rate : 192 Kbps
Channel(s) : 1 channel
Channel positions : Front: C
Sampling rate : 48.0 KHz
Frame rate : 31.250 fps (1536 spf)
Compression mode : Lossy
Stream size : 194 MiB (7%)
Title : Воротилин
Language : Russian
Default : Yes
Forced : No
Audio #3
ID : 3
Format : AC-3
Format/Info : Audio Coding 3
Mode extension : CM (complete main)
Format settings, Endianness : Big
Codec ID : A_AC3
Duration : 2h 20mn
Bit rate mode : Constant
Bit rate : 192 Kbps
Channel(s) : 1 channel
Channel positions : Front: C
Sampling rate : 48.0 KHz
Frame rate : 31.250 fps (1536 spf)
Compression mode : Lossy
Stream size : 194 MiB (7%)
Language : Spanish
Default : No
Forced : No
Text #4
ID : 4
Format : UTF-8
Codec ID : S_TEXT/UTF8
Codec ID/Info : UTF-8 Plain Text
Duration : 2h 13mn
Bit rate : 62 bps
Count of elements : 1155
Stream size : 61.6 KiB (0%)
Title : interdude
Language : Russian
Default : No
Forced : No
Text #5
ID : 5
Format : UTF-8
Codec ID : S_TEXT/UTF8
Codec ID/Info : UTF-8 Plain Text
Duration : 2h 15mn
Bit rate : 46 bps
Count of elements : 1453
Stream size : 46.1 KiB (0%)
Title : SDH
Language : English
Default : No
Forced : No

лог

raw [info]: 736x414p 1:1 @ 24000/1001 fps (cfr)
x264 [info]: using SAR=1/1
x264 [info]: using cpu capabilities: MMX2 SSE2Fast SSSE3 SSE4.2 AVX XOP FMA3 BMI1
x264 [info]: profile High, level 4.1, 4:2:0, 8-bit
x264 [info]: frame I:1441 Avg QP:18.83 size: 51908
x264 [info]: frame P:34748 Avg QP:20.21 size: 24647
x264 [info]: frame B:166530 Avg QP:22.14 size: 10510
x264 [info]: consecutive B-frames: 1.0% 0.6% 2.0% 12.2% 9.8% 45.9% 8.1% 4.2% 3.9% 2.3% 2.5% 4.2% 2.1% 1.2%
x264 [info]: mb I I16..4: 2.5% 85.2% 12.3%
x264 [info]: mb P I16..4: 0.1% 19.4% 0.8% P16..4: 31.4% 23.9% 19.4% 0.7% 0.2% skip: 4.0%
x264 [info]: mb B I16..4: 0.0% 3.0% 0.1% B16..8: 42.6% 14.3% 6.6% direct: 7.5% skip:25.9% L0:48.6% L1:42.5% BI: 8.9%
x264 [info]: 8x8 transform intra:95.2% inter:59.5%
x264 [info]: coded y,uvDC,uvAC intra: 98.9% 71.8% 40.5% inter: 40.2% 22.0% 1.3%
x264 [info]: i16 v,h,dc,p: 51% 16% 11% 23%
x264 [info]: i8 v,h,dc,ddl,ddr,vr,hd,vl,hu: 7% 6% 17% 10% 12% 12% 12% 11% 12%
x264 [info]: i4 v,h,dc,ddl,ddr,vr,hd,vl,hu: 8% 6% 3% 10% 16% 16% 15% 13% 13%
x264 [info]: i8c dc,h,v,p: 38% 29% 19% 13%
x264 [info]: Weighted P-Frames: Y:18.3% UV:9.0%
x264 [info]: ref P L0: 39.1% 12.0% 17.5% 7.8% 6.8% 4.8% 4.6% 2.5% 2.5% 2.2% 0.3% 0.0%
x264 [info]: ref B L0: 57.4% 15.1% 9.6% 5.5% 4.2% 3.6% 3.0% 1.3% 0.4%
x264 [info]: ref B L1: 89.6% 10.4%
x264 [info]: kb/s:2537.10
x264 [total]: encoded 202719 frames, 8.97 fps, 2537.10 kb/s

Скриншоты


[cybertorrent.net].t2425.torrent 
Торрент: Зарегистрирован [ 2019-05-01 16:45 ] · F10698DD60B3BFFDC26F953172445597869F519A

Скачать .torrent

Скачать

15 KB

Статус: проверено
Скачан: 0 раз
Размер: 2,88 GB
terms.php
Профиль [ЛС]
Показать сообщения:    

Текущее время: 21-Ноя 01:12

Часовой пояс: UTC ± 0



Вы не можете начинать темы
Вы не можете отвечать на сообщения
Вы не можете редактировать свои сообщения
Вы не можете удалять свои сообщения
Вы не можете голосовать в опросах
Вы не можете прикреплять файлы к сообщениям
Вы можете скачивать файлы