Статистика раздачи
Размер:  1,46 GB   |    Зарегистрирован:  6 месяцев 20 дней   |    Скачан:  0 раз

Полного источника не было: Никогда

 
     
 
 

serzh ®

Пол:
Не указан
Стаж:
8 месяцев 9 дней
Сообщений:
384

Аллея черных лачуг / Улица черных домов / Sugar Cane Alley / Rue cases nègres
Страна: Франция
Жанр: Драма
Год выпуска: 1983
Продолжительность: 01:41:15
Перевод: Профессиональный (многоголосый закадровый)
Субтитры: нет
Режиссер: Эзан Пальси / Euzhan Palcy
В ролях: Гарри Кейднат, Дарлинг Лежитимю, Доута Сечк, Джоби Бернабэ, Франсиско Шарль,
Мари-Джо Дескас, Marie-Ange Farot, Henri Melon, Эжен Мона, Джоэль Пальси
Описание: Мартиника, 1930 год. Жители бедной деревушки зарабатывают на жизнь рубкой
сахарного тростника. Маленький Жозе живет с «мамушкой» — пожилой больной женщиной. Чтобы
вырваться из нищеты, Жозе решает стать первым учеником в школе, получить государственную
стипендию и продолжить обучение уже в столице — Фор-де-Франс, городе, о котором мечтают все
дети его деревни.
Доп. информация: Дорожка с MVO синхронизирована и наложена ale_x2008 при помощи Sony Vegas и VirtualDubMod.
Релиз
Сэмпл: https://yadi.sk/i/Nq9anbxfIvo3pA
Качество видео: DVDRip
Формат видео: AVI
Видео: XviD build 73, 704x400 (1.76:1), 23.976 fps, 1867 kbps avg, 0.28 bit/pixel
Аудио: AC3 Dolby Digital, 48000Hz 2/0 (L,R) ch (mono), 192 kbps avg

MediaInfo

Аллея черных лачуг (Rue cases negres) [by ale_x2008].avi
Format : AVI
Format/Info : Audio Video Interleave
File size : 1.46 GiB
Duration : 1 h 41 min
Overall bit rate : 2 069 kb/s
Movie name : Аллея черных лачуг (Rue cases negres) MVO mono
Director : DVDRip by ale_x2008
Genre : Drama
Writing application : VirtualDubMod 1.5.10.3 (build 2550/release)
Original source form/Name : Movie
Copyright : Edich2
Comment : RuTracker.org
Video
ID : 0
Format : MPEG-4 Visual
Format profile : Advanced Simple@L5
Format settings : BVOP1
Format settings, BVOP : 1
Format settings, QPel : No
Format settings, GMC : No warppoints
Format settings, Matrix : Default (MPEG)
Codec ID : XVID
Codec ID/Hint : XviD
Duration : 1 h 41 min
Bit rate : 1 868 kb/s
Width : 704 pixels
Height : 400 pixels
Display aspect ratio : 16:9
Frame rate : 23.976 (24000/1001) FPS
Color space : YUV
Chroma subsampling : 4:2:0
Bit depth : 8 bits
Scan type : Progressive
Compression mode : Lossy
Bits/(Pixel*Frame) : 0.277
Stream size : 1.32 GiB (90%)
Writing library : XviD 73
Audio
ID : 1
Format : AC-3
Format/Info : Audio Coding 3
Codec ID : 2000
Duration : 1 h 41 min
Bit rate mode : Constant
Bit rate : 192 kb/s
Channel(s) : 2 channels
Channel positions : Front: L R
Sampling rate : 48.0 kHz
Frame rate : 31.250 FPS (1536 SPF)
Bit depth : 16 bits
Compression mode : Lossy
Stream size : 139 MiB (9%)
Alignment : Split accross interleaves
Interleave, duration : 42 ms (1.00 video frame)
Interleave, preload duratio : 500 ms
Service kind : Complete Main

Скриншоты


[cybertorrent.net].t2423.torrent 
Торрент: Зарегистрирован [ 2019-05-01 16:45 ] · 5C3FE73390A2E5FB66E68C224ED6866518BDE226

Скачать .torrent

Скачать

15 KB

Статус: проверено
Скачан: 0 раз
Размер: 1,46 GB
terms.php
Профиль [ЛС]
Показать сообщения:    

Текущее время: 22-Ноя 07:58

Часовой пояс: UTC ± 0



Вы не можете начинать темы
Вы не можете отвечать на сообщения
Вы не можете редактировать свои сообщения
Вы не можете удалять свои сообщения
Вы не можете голосовать в опросах
Вы не можете прикреплять файлы к сообщениям
Вы можете скачивать файлы