Статистика раздачи
Размер:  743 MB   |    Зарегистрирован:  6 месяцев 13 дней   |    Скачан:  0 раз

Полного источника не было: Никогда

 
     
 
 

karlll ®

Пол:
Не указан
Стаж:
8 месяцев 2 дня
Сообщений:
171

Большой злой лис и другие сказки / Le grand méchant renard et autres contes...
Страна: Франция
Жанр: мультфильм, сказка, комедия, приключения, семейный
Год выпуска: 2017
Продолжительность: 01:19:16-Перевод: Профессиональный (многоголосый закадровый) | SDI Media
Субтитры: нет
Оригинальная аудиодорожка: нет-Режиссер: Патрик Имбер, Бенжамин Реннер / Patrick Imbert, Benjamin Renner-В ролях: Селин Ронте, Борис Релинже, Гийом Бушед, Гийом Дарно, Дамьен Витецка, Антуан Шумский, Жан-Луп Хорвитц, Кристоф Лемуан, Магали Розенцвейг, Камел Абдессадок-Описание: Если вы полагаете, что в сельской местности царят тишь да гладь, вы крупно ошибаетесь. На самом деле деревенская жизнь полна невероятных событий и приключений. Например, однажды пролётный аист подкидывает кролику и поросёнку ребеночка — с просьбой доставить его по адресу. В иной день лис невольно становится наседкой для троих цыплят, которые кличут его мамой и требуют заботы. А уж как дело доходит до Рождества, тут веселье охватывает всю ферму и окрестные леса.- -Качество видео: BDRip
Формат видео: AVI
Видео: 688x384 (1.79:1), 25 fps, XviD build 73 ~1109 kbps avg, 0.17 bit/pixel
Аудио: 48 kHz, AC3 Dolby Digital, 2/0 (L,R) ch, ~192 kbps-[box]Сэмпл[/box]-

MediaInfo

Код:Формат : AVI
Формат/Информация : Audio Video Interleave
Размер файла : 743 Мбайт
Продолжительность : 1 ч. 19 м.
Общий поток : 1311 Кбит/сек
Название фильма : Большой злой лис и другие сказки_2017_BDRip
Программа кодирования : VirtualDubMod 1.5.10.3 | www.virtualdub-fr.org || (build 2550/release)
Авторское право : порошков
Видео
Идентификатор : 0
Формат : MPEG-4 Visual
Профиль формата : Advanced Simple@L5
Настройки формата : BVOP1 / Custom Matrix
Параметр BVOP формата : 1
Параметр QPel формата : Нет
Параметр GMC формата : Без точки перехода
Параметр матрицы формата : Выборочная
Идентификатор кодека : XVID
Идентификатор кодека/Подсказка : XviD
Продолжительность : 1 ч. 19 м.
Битрейт : 1109 Кбит/сек
Ширина : 688 пикселей
Высота : 384 пикселя
Соотношение сторон : 16:9
Частота кадров : 25,000 кадров/сек
Цветовое пространство : YUV
Субдискретизация насыщенности : 4:2:0
Битовая глубина : 8 бит
Тип развёртки : Прогрессивная
Метод сжатия : С потерями
Бит/(Пиксели*Кадры) : 0.168
Размер потока : 629 Мбайт (85%)
Библиотека кодирования : XviD 73
Аудио
Идентификатор : 1
Формат : AC-3
Формат/Информация : Audio Coding 3
Коммерческое название : Dolby Digital
Идентификатор кодека : 2000
Продолжительность : 1 ч. 19 м.
Вид битрейта : Постоянный
Битрейт : 192 Кбит/сек
Каналы : 2 канала
ChannelLayout : L R
Частота : 48,0 КГц
Частота кадров : 31,250 кадров/сек (1536 SPF)
Битовая глубина : 16 бит
Метод сжатия : С потерями
Размер потока : 109 Мбайт (15%)
Выравнивание : Разделение по промежуткам
Продолжительность промежутка : 40 мс. (1,00 видеокадр)
Время предзагрузки промежутка : 500 мс.
ServiceKind/String : Complete Main

Скриншоты


[cybertorrent.net].t2421.torrent 
Торрент: Зарегистрирован [ 2019-05-01 16:45 ] · 98F398E950E7881FB3AC6598AD2D06452E4D2531

Скачать .torrent

Скачать

15 KB

Статус: проверено
Скачан: 0 раз
Размер: 743 MB
terms.php
Профиль ЛС
Показать сообщения:    

Текущее время: 14-Ноя 16:48

Часовой пояс: UTC ± 0



Вы не можете начинать темы
Вы не можете отвечать на сообщения
Вы не можете редактировать свои сообщения
Вы не можете удалять свои сообщения
Вы не можете голосовать в опросах
Вы не можете прикреплять файлы к сообщениям
Вы можете скачивать файлы