Статистика раздачи
Размер:  1,46 GB   |    Зарегистрирован:  7 месяцев 9 дней   |    Скачан:  0 раз

Полного источника не было: Никогда

 
     
 
 

Гость ®

Пол:
Не указан

Прикосновение огнём / Touched with Fire
Страна: США
Жанр: драма, мелодрама
Год выпуска: 2015
Продолжительность: 01:46:25
Перевод: Любительский (многоголосый закадровый)
Субтитры: нет
Оригинальная аудиодорожка: английский
Режиссер: Пол Далио / Paul Dalio
В ролях: Кэти Холмс, Люк Кирби, Кристин Лати, Гриффин Данн, Брюс Олтмен, Алекс Манетт, Эдвард Гелбинович, Дэниэл Джерролл, Патрик Байас, Женевьева Адамс
Описание: Два человека с маниакально-депрессивными расстройствами знакомятся в психиатрической больнице и влюбляются друг в друга…
Качество видео: HDRip
Формат видео: AVI
Видео: XviD, 720x304 (2,36:1), 23,976 fps, 1565 kbps
Аудио 1: AC3 Dolby Digital, 48 kHz, 2 ch, 192 kbps (Rus)
Аудио 2: AC3 Dolby Digital, 48 kHz, 2 ch, 192 kbps (Eng)
За работу с аудиодорожкой большое спасибо Нордер

MediaInfo

Общее
Полное имя : Touched with Fire 2015.avi
Формат : AVI
Формат/Информация : Audio Video Interleave
Размер файла : 1,46 Гбайт
Продолжительность : 1 ч. 46 м.
Общий поток : 1964 Кбит/сек
Программа кодирования : VirtualDubMod 1.5.10.2 (build 2542/release)
Библиотека кодирования : VirtualDubMod build 2542/release
Видео
Идентификатор : 0
Формат : MPEG-4 Visual
Профиль формата : Advanced Simple@L5
Настройки формата : BVOP2 / Custom Matrix
Параметр BVOP формата : 2
Параметр QPel формата : Нет
Параметр GMC формата : Без точки перехода
Параметр матрицы формата : Выборочная
Идентификатор кодека : XVID
Идентификатор кодека/Подсказка : XviD
Продолжительность : 1 ч. 46 м.
Битрейт : 1565 Кбит/сек
Ширина : 720 пикселей
Высота : 304 пикселя
Соотношение сторон : 2,35:1
Частота кадров : 23,976 (24000/1001) кадра/сек
Цветовое пространство : YUV
Субдискретизация насыщенности : 4:2:0
Битовая глубина : 8 бит
Тип развёртки : Прогрессивная
Метод сжатия : С потерями
Бит/(Пиксели*Кадры) : 0.298
Размер потока : 1,16 Гбайт (80%)
Библиотека кодирования : XviD 65
Аудио #1
Идентификатор : 1
Формат : AC-3
Формат/Информация : Audio Coding 3
Идентификатор кодека : 2000
Продолжительность : 1 ч. 46 м.
Вид битрейта : Постоянный
Битрейт : 192 Кбит/сек
Каналы : 2 канала
Расположение каналов : Front: L R
Частота : 48,0 КГц
Частота кадров : 31,250 кадров/сек (1536 SPF)
Битовая глубина : 16 бит
Метод сжатия : С потерями
Размер потока : 146 Мбайт (10%)
Выравнивание : Разделение по промежуткам
Продолжительность промежутка : 42 мс. (1,00 видеокадр)
Время предзагрузки промежутка : 500 мс.
ServiceKind/String : Complete Main
Аудио #2
Идентификатор : 2
Формат : AC-3
Формат/Информация : Audio Coding 3
Идентификатор кодека : 2000
Продолжительность : 1 ч. 46 м.
Вид битрейта : Постоянный
Битрейт : 192 Кбит/сек
Каналы : 2 канала
Расположение каналов : Front: L R
Частота : 48,0 КГц
Частота кадров : 31,250 кадров/сек (1536 SPF)
Битовая глубина : 16 бит
Метод сжатия : С потерями
Размер потока : 146 Мбайт (10%)
Выравнивание : Разделение по промежуткам
Продолжительность промежутка : 42 мс. (1,00 видеокадр)
Время предзагрузки промежутка : 500 мс.
ServiceKind/String : Complete Main
[cybertorrent.net].t2410.torrent 
Торрент: Зарегистрирован [ 2019-05-01 16:45 ] · 32AF1B713F097478B9336A1A4C20687F6094D576

Скачать .torrent

Скачать

15 KB

Статус: проверено
Скачан: 0 раз
Размер: 1,46 GB
terms.php
Показать сообщения:    

Текущее время: 11-Дек 07:08

Часовой пояс: UTC ± 0



Вы не можете начинать темы
Вы не можете отвечать на сообщения
Вы не можете редактировать свои сообщения
Вы не можете удалять свои сообщения
Вы не можете голосовать в опросах
Вы не можете прикреплять файлы к сообщениям
Вы можете скачивать файлы