Статистика раздачи
Размер:  4,46 GB   |    Зарегистрирован:  7 месяцев 13 дней   |    Скачан:  0 раз
Сидов:  2  [  0 KB/s  ]   Личеров:  1  [  0 KB/s  ]  
 
     
 
 

Гость ®

Пол:
Не указан

Сумеречная зона / The Twilight Zone
- Год выпуска: 2019
Страна: США
Жанр: Ужасы, фантастика, фэнтези, триллер, драма, детектив
Продолжительность: ~00:55:00-Перевод: Профессиональный (многоголосый закадровый) | AlexFilm-Режиссёр: Матиас Хендл, Саймон Кинберг, Крэйг Уилльям Макнейлл-В ролях: Джордан Пил, Зази Битц, Сет Роген, Джиннифер Гудвин, Лесли Мирза, Джон Чо, Трэйси Морган, Шалин Фердинанд, Питер Грант, Йен Хоуз, Диарра Килпэтрик, Адам Стэффорд, Таисса Фармига, Джейкоб Тремблей, Стивен Ян, Эллисон Толман, Крис О`Дауд, Айк Баринхолц, Кумэйл Нанджиани, Ри Сихорн, Амара Каран, Адам Скотт, ДеВанда Уайз, Диарра Килпэтрик, Гленн Флешлер, Грег Киннир, Джон Ларрокетт, Стив Харрис-Описание: Перезагрузка классического сериала “Сумеречная зона” 1959 года. Вы отправляетесь в путешествие в другое измерение, измерение не только зрения и слуха, но и разума. Путешествие в удивительную страну, границы которой — это границы воображения. Этот указатель впереди — ваша следующая остановка, Сумеречная зона!- -

[box=#d2d2d2,#000000]Ссылка на предыдущие и альтернативные раздачи[/box]-Качество: WEB-DLRip
Формат: AVI
Видео: XviD, 720x400, 24.000 fps, ~2000 kbps
Аудио #1: 48 kHz, AC3, 3/2 (L,C,R,l,r) + LFE ch, ~384.00 kbps avg | Rus
Аудио #2: 48 kHz, AC3, 3/2 (L,C,R,l,r) + LFE ch, ~384.00 kbps avg | Eng
Субтитры: нет
Реклама: нет
Работа со звуком: Keedof-

MediaInfo

Format : AVI
Format/Info : Audio Video Interleave
File size : 740 MiB
Duration : 37 min 6 s
Overall bit rate : 2 789 kb/s
Writing application : VirtualDubMod 1.5.10.2 (build 2540/release)
Writing library : VirtualDubMod build 2540/release
Video
ID : 0
Format : MPEG-4 Visual
Format profile : Advanced Simple@L5
Format settings : BVOP2 / Custom Matrix
Format settings, BVOP : 2
Format settings, QPel : No
Format settings, GMC : No warppoints
Format settings, Matrix : Custom
Codec ID : XVID
Codec ID/Hint : XviD
Duration : 37 min 6 s
Bit rate : 2 007 kb/s
Width : 720 pixels
Height : 400 pixels
Display aspect ratio : 16:9
Frame rate : 24.000 FPS
Color space : YUV
Chroma subsampling : 4:2:0
Bit depth : 8 bits
Scan type : Progressive
Compression mode : Lossy
Bits/(Pixel*Frame) : 0.290
Stream size : 533 MiB (72%)
Writing library : XviD 73
Audio #1
ID : 1
Format : AC-3
Format/Info : Audio Coding 3
Codec ID : 2000
Duration : 37 min 6 s
Bit rate mode : Constant
Bit rate : 384 kb/s
Channel(s) : 6 channels
Channel positions : Front: L C R, Side: L R, LFE
Sampling rate : 48.0 kHz
Frame rate : 31.250 FPS (1536 SPF)
Bit depth : 16 bits
Compression mode : Lossy
Stream size : 102 MiB (14%)
Alignment : Split accross interleaves
Interleave, duration : 42 ms (1.00 video frame)
Interleave, preload duratio : 500 ms
Service kind : Complete Main
Audio #2
ID : 2
Format : AC-3
Format/Info : Audio Coding 3
Codec ID : 2000
Duration : 37 min 6 s
Bit rate mode : Constant
Bit rate : 384 kb/s
Channel(s) : 6 channels
Channel positions : Front: L C R, Side: L R, LFE
Sampling rate : 48.0 kHz
Frame rate : 31.250 FPS (1536 SPF)
Bit depth : 16 bits
Compression mode : Lossy
Stream size : 102 MiB (14%)
Alignment : Split accross interleaves
Interleave, duration : 42 ms (1.00 video frame)
Interleave, preload duratio : 500 ms
Service kind : Complete Main

Скриншоты

Внимание! Раздача ведётся путём добавления новых серий

Внимание! Раздача ведётся путём добавления новых серий; при каждом добавлении создаётся новый торрент. Чтобы начать докачку новой серии, пользователям необходимо сделать следующее:
(1) остановить скачивание,
(2) удалить старый торрент у себя из клиента (старые серии удалять не надо),
(3) скачать новый торрент и запустить его у себя в клиенте вместо старого, при этом указать клиенту путь в старую папку куда и должно происходить скачивание новых серий.
Ваш клиент при этом должен произвести хеширование (проверку) старой папки (если не производит сам - помогите ему сделать это), и будет докачивать только те серии которых у вас ещё нет. Старые серии при этом не удаляются, а продолжают раздаваться!
Eсли вы уже удалили старые серии, то предотвратить повторную закачку старых серий можно, отжав галочку в соответствующих местах при запуске нового торрента. По возможности, желательно не удалять старые серии как можно дольше чтобы релизёр не столько продолжал раздавать старые серии, а смог сконцентрироваться на новых.
-
[cybertorrent.net].t2407.torrent 
Торрент: Зарегистрирован [ 2019-05-01 16:45 ] · FFC67B26EA27B885BCF45109993169400EC732AD

Скачать .torrent

Скачать

23 KB

Статус: проверено
Скачан: 0 раз
Размер: 4,46 GB
terms.php
Показать сообщения:    

Текущее время: 15-Дек 11:44

Часовой пояс: UTC ± 0



Вы не можете начинать темы
Вы не можете отвечать на сообщения
Вы не можете редактировать свои сообщения
Вы не можете удалять свои сообщения
Вы не можете голосовать в опросах
Вы не можете прикреплять файлы к сообщениям
Вы можете скачивать файлы